古哥论坛

 找回密码
 注册(分享大片)
查看: 469|回复: 31

[原神2021线上音乐会]Genshin Concert 2021 Melodies of an Endless Journey(8.47GB)

[复制链接]
回帖奖励 44 YSB影视币 回复本帖可获得 2 YSB影视币奖励! 每人限 1 次
  • TA的每日心情
    无聊
    7 天前
  • 签到天数: 4 天

    [LV.2]偶尔看看I

    发表于 2021-10-12 15:39:34 | 显示全部楼层 |阅读模式
    4K天堂
    本帖最后由 r6472279 于 2021-10-12 16:48 编辑

    Genshin Concert 2021 Melodies of an Endless Journey 2021.10.03 WEB-DL 4k 60fps H.264 AAC2.0-HDCTV
    《原神》2021年线上音乐会 [无水印高码]

    (无际之旅的旋律 原神一周年快乐)

    8.47 GB

    HDChina 原创作品,转载压制请注意礼节,谢谢合作!
    HDChina original works, Please specify your rip source in your rip/NFO note. Thanks!

    自由宁静的蒙德城和富饶繁华的璃月港记录下每一位旅人的脚步。
    风之歌和岩之声在新的舞台上的交织交响,为你谱写一段独特的冒险篇章。

    原神2021年线上音乐会.jpg
    影片参数:
    1. General
    2. Complete name                            : L:\Genshin.Concert.2021.Melodies.of.an.Endless.Journey.20211003.WEB-DL.4k.60fps.H264.AAC-HDCTV.mp4
    3. Format                                   : MPEG-4
    4. Format profile                           : Base Media
    5. Codec ID                                 : isom (isom/iso2/avc1/mp41)
    6. File size                                : 8.47 GiB
    7. Duration                                 : 1 h 43 min
    8. Overall bit rate                         : 11.7 Mb/s
    9. Writing application                      : Lavf58.32.104
    10. Comment                                  : mid:NDY4ODI4Mjc3NzQ4NTM1OQ==

    11. Video
    12. ID                                       : 1
    13. Format                                   : AVC
    14. Format/Info                              : Advanced Video Codec
    15. Format profile                           : [url=mailto:High@L5.2]High@L5.2[/url]
    16. Format settings                          : CABAC / 5 Ref Frames
    17. Format settings, CABAC                   : Yes
    18. Format settings, Reference frames        : 5 frames
    19. Codec ID                                 : avc1
    20. Codec ID/Info                            : Advanced Video Coding
    21. Duration                                 : 1 h 43 min
    22. Bit rate                                 : 11.3 Mb/s
    23. Width                                    : 3 840 pixels
    24. Height                                   : 2 160 pixels
    25. Display aspect ratio                     : 16:9
    26. Frame rate mode                          : Constant
    27. Frame rate                               : 60.000 FPS
    28. Color space                              : YUV
    29. Chroma subsampling                       : 4:2:0
    30. Bit depth                                : 8 bits
    31. Scan type                                : Progressive
    32. Bits/(Pixel*Frame)                       : 0.023
    33. Stream size                              : 8.23 GiB (97%)
    34. Codec configuration box                  : avcC

    35. Audio
    36. ID                                       : 2
    37. Format                                   : AAC LC
    38. Format/Info                              : Advanced Audio Codec Low Complexity
    39. Codec ID                                 : mp4a-40-2
    40. Duration                                 : 1 h 43 min
    41. Bit rate mode                            : Constant
    42. Bit rate                                 : 317 kb/s
    43. Channel(s)                               : 2 channels
    44. Channel layout                           : L R
    45. Sampling rate                            : 48.0 kHz
    46. Frame rate                               : 46.875 FPS (1024 SPF)
    47. Compression mode                         : Lossy
    48. Stream size                              : 236 MiB (3%)
    49. Default                                  : Yes
    50. Alternate group                          : 1
    复制代码


    原神2021年线上音乐会1.jpg
    原神2021年线上音乐会2.jpg
    原神2021年线上音乐会3.jpg
    原神2021年线上音乐会5.jpg
    原神2021年线上音乐会6.jpg

    (请复制链接使用115 添加离线任务 进行下载)
    游客,如果您要查看本帖隐藏内容请回复开通VIP会员可免回复、不扣积分下载种子附件,点击开通VIP会员


    古哥影视论坛www.gudage.cc 高清电影,蓝光电影,最新电影,电影天堂,影视帝国,人人影视

    该用户从未签到

    发表于 2021-10-12 17:59:50 | 显示全部楼层

    回帖奖励 +2 YSB影视币

    感谢楼主分享!永远支持古哥影视
    古哥影视论坛www.gudage.cc 高清电影,蓝光电影,最新电影,电影天堂,影视帝国,人人影视
    回复 支持 反对

    使用道具 举报

    该用户从未签到

    发表于 2021-10-12 18:07:55 | 显示全部楼层

    回帖奖励 +2 YSB影视币

    感谢楼主分享!
    古哥影视论坛www.gudage.cc 高清电影,蓝光电影,最新电影,电影天堂,影视帝国,人人影视
    回复 支持 反对

    使用道具 举报

    该用户从未签到

    发表于 2021-10-12 18:42:43 | 显示全部楼层

    回帖奖励 +2 YSB影视币

    有听过的吗
    古哥影视论坛www.gudage.cc 高清电影,蓝光电影,最新电影,电影天堂,影视帝国,人人影视
    回复 支持 反对

    使用道具 举报

  • TA的每日心情
    开心
    6 小时前
  • 签到天数: 190 天

    [LV.7]常住居民III

    发表于 2021-10-12 19:08:03 | 显示全部楼层

    回帖奖励 +2 YSB影视币

    谢谢楼主的分享!
    古哥影视论坛www.gudage.cc 高清电影,蓝光电影,最新电影,电影天堂,影视帝国,人人影视
    回复 支持 反对

    使用道具 举报

  • TA的每日心情
    开心
    昨天 22:14
  • 签到天数: 86 天

    [LV.6]常住居民II

    发表于 2021-10-12 21:48:04 | 显示全部楼层

    回帖奖励 +2 YSB影视币

    谢楼主分享
    古哥影视论坛www.gudage.cc 高清电影,蓝光电影,最新电影,电影天堂,影视帝国,人人影视
    回复 支持 反对

    使用道具 举报

    该用户从未签到

    发表于 2021-10-12 22:07:29 | 显示全部楼层

    回帖奖励 +2 YSB影视币

    下来看看,谢谢分享……
    古哥影视论坛www.gudage.cc 高清电影,蓝光电影,最新电影,电影天堂,影视帝国,人人影视
    回复 支持 反对

    使用道具 举报

  • TA的每日心情
    开心
    6 天前
  • 签到天数: 78 天

    [LV.6]常住居民II

    发表于 2021-10-12 22:07:32 | 显示全部楼层

    回帖奖励 +2 YSB影视币

    谢谢楼主的分享!
    古哥影视论坛www.gudage.cc 高清电影,蓝光电影,最新电影,电影天堂,影视帝国,人人影视
    回复 支持 反对

    使用道具 举报

  • TA的每日心情

    2021-9-10 17:24
  • 签到天数: 2 天

    [LV.1]初来乍到

    发表于 2021-10-12 22:54:26 | 显示全部楼层

    回帖奖励 +2 YSB影视币

    谢谢楼主分享,谢谢
    古哥影视论坛www.gudage.cc 高清电影,蓝光电影,最新电影,电影天堂,影视帝国,人人影视
    回复 支持 反对

    使用道具 举报

  • TA的每日心情

    2021-9-10 17:24
  • 签到天数: 2 天

    [LV.1]初来乍到

    发表于 2021-10-12 23:01:17 | 显示全部楼层
    有没有迅雷链接,这个链接用迅雷提示失效
    古哥影视论坛www.gudage.cc 高清电影,蓝光电影,最新电影,电影天堂,影视帝国,人人影视
    回复 支持 反对

    使用道具 举报

    该用户从未签到

    发表于 2021-10-13 06:27:51 | 显示全部楼层

    回帖奖励 +2 YSB影视币

    原神2021线上音乐会!感谢楼主!
    古哥影视论坛www.gudage.cc 高清电影,蓝光电影,最新电影,电影天堂,影视帝国,人人影视
    回复 支持 反对

    使用道具 举报

    该用户从未签到

    发表于 2021-10-13 09:37:47 | 显示全部楼层

    回帖奖励 +2 YSB影视币

    原神一周年快乐
    古哥影视论坛www.gudage.cc 高清电影,蓝光电影,最新电影,电影天堂,影视帝国,人人影视
    回复 支持 反对

    使用道具 举报

    该用户从未签到

    发表于 2021-10-13 12:47:29 | 显示全部楼层

    回帖奖励 +2 YSB影视币

    感谢楼主分享!!!!!
    古哥影视论坛www.gudage.cc 高清电影,蓝光电影,最新电影,电影天堂,影视帝国,人人影视
    回复 支持 反对

    使用道具 举报

    该用户从未签到

    发表于 2021-10-13 17:55:38 | 显示全部楼层

    回帖奖励 +2 YSB影视币

    感谢楼主分享!!!!!
    古哥影视论坛www.gudage.cc 高清电影,蓝光电影,最新电影,电影天堂,影视帝国,人人影视
    回复 支持 反对

    使用道具 举报

    该用户从未签到

    发表于 2021-10-13 19:50:05 | 显示全部楼层

    回帖奖励 +2 YSB影视币

    国产之光,必须看下了!
    古哥影视论坛www.gudage.cc 高清电影,蓝光电影,最新电影,电影天堂,影视帝国,人人影视
    回复 支持 反对

    使用道具 举报

    该用户从未签到

    发表于 2021-10-13 20:19:07 | 显示全部楼层

    回帖奖励 +2 YSB影视币

    感谢楼主分享!永远支持古哥影视
    古哥影视论坛www.gudage.cc 高清电影,蓝光电影,最新电影,电影天堂,影视帝国,人人影视
    回复 支持 反对

    使用道具 举报

  • TA的每日心情
    无聊
    7 天前
  • 签到天数: 4 天

    [LV.2]偶尔看看I

     楼主| 发表于 2021-10-13 21:07:24 | 显示全部楼层
    micheal5jackson 发表于 2021-10-12 23:01
    有没有迅雷链接,这个链接用迅雷提示失效

    只有115 抱歉了
    古哥影视论坛www.gudage.cc 高清电影,蓝光电影,最新电影,电影天堂,影视帝国,人人影视
    回复 支持 反对

    使用道具 举报

    该用户从未签到

    发表于 2021-10-14 00:25:05 | 显示全部楼层

    回帖奖励 +2 YSB影视币

    这是啥情况?下载来看看
    古哥影视论坛www.gudage.cc 高清电影,蓝光电影,最新电影,电影天堂,影视帝国,人人影视
    回复 支持 反对

    使用道具 举报

    该用户从未签到

    发表于 2021-10-14 00:48:10 | 显示全部楼层

    回帖奖励 +2 YSB影视币

    感谢楼主分享!
    古哥影视论坛www.gudage.cc 高清电影,蓝光电影,最新电影,电影天堂,影视帝国,人人影视
    回复 支持 反对

    使用道具 举报

    您需要登录后才可以回帖 登录 | 注册(分享大片)

    本版积分规则

    免责声明
    本站提供网上学习交流和自由讨论使用,所有资源均来自互联网公开渠道,发布和个人言论并不代表本站立场,本站不负任何责任.
    如发现有侵权行为,请与我们联系.我们将立刻从网站上删除,并向所有持版权者致最深歉意.
    已经安全运行

    QQ|小黑屋|手机版|Archiver|古哥论坛

    GMT+8, 2021-10-23 15:06 , Processed in 0.093600 second(s), 22 queries , Gzip On.

    Powered by Discuz! X3.4

    Copyright © 2001-2020, Tencent Cloud.

    快速回复 返回顶部 返回列表