古哥论坛

 找回密码
 注册(分享大片)
查看: 1974|回复: 342

[韩剧][鱿鱼游戏 全9集]Squid Game S01 NF WEB-DL 1080p H.265 DDP5.1 Atmos(48.72GB)

  [复制链接]
  • TA的每日心情
    无聊
    7 天前
  • 签到天数: 4 天

    [LV.2]偶尔看看I

    发表于 2021-10-12 00:14:41 | 显示全部楼层 |阅读模式
    4K天堂
    Squid Game S01 1080p NF WEB-DL Atmos DDP5.1 HDR H.265(HBO@TTG)
    [韩剧][鱿鱼游戏 全9集][多语言字幕/中字]

    48.72 GB
    鱿鱼游戏1.jpg
    ◎译  名 鱿鱼游戏/Round Six/Squid Game/第六轮
    ◎片  名 오징어 게임
    ◎年  代 2021
    ◎产  地 韩国
    ◎类  别 悬疑 / 惊悚
    ◎语  言 韩语
    ◎上映日期 2021-09-17(韩国)
    ◎IMDb评分  8.3/10 from 15550 users
    ◎IMDb链接  https://www.imdb.com/title/tt10919420/
    ◎豆瓣评分 7.8/10 from 100043 users
    ◎豆瓣链接 https://movie.douban.com/subject/34812928/
    ◎集  数 9
    ◎片  长 60分钟
    ◎导  演 黄东赫 Dong-hyuk Hwang
    ◎编  剧 黄东赫 Dong-hyuk Hwang
    ◎主  演 李政宰 Jung-jae Lee
           朴海秀 Hae-soo Park
           魏化俊 Ha-joon Wi
           孔刘 Yoo Gong
           李秉宪 Byeng-hun Lee
           吴永寿 오영수
           郑浩妍 Hoyeon Jung
           许成泰 Seong-tae Heo
           金周灵 Joo-ryeong Kim
           李瑜美 Yoo-mi Lee
           阿努帕姆·特里帕蒂 Anupam Tripathi
           金英玉 Young-ok Kim
           金范来 Kim Beop-rae
           李书焕 Seo-hwan Lee
           金英善 Yeong-seon Kim
           朴惠珍 Hye-jin Park
           姜末琴 Mal-Geum Kang
           杰弗里·朱利亚诺 Geoffrey Giuliano
           约翰 D.迈克斯 John D. Michaels
           丹尼尔·C·肯尼迪 Daniel C Kennedy
           李政俊 Lee Jung-jun
           许栋元 Heo Dong-won
           吴荣秀 Young Soo Oh

    ◎标  签 Netflix | 韩剧 | 悬疑 | 韩国 | 惊悚 | 李政宰 | 2021 | 孔刘

    ◎简  介

      数百名经济拮据的人接受了一个奇怪的邀请,参加儿童游戏比赛。在这场游戏中,有诱人的奖金,也有致命的高风险。


    1. General
    2. Unique ID                                : 41363983073272521883115253685650804671 (0x1F1E69D21776A2043196B90D39D14FBF)
    3. Complete name                            : Squid.Game.S01E02.Hell.1080p.NF.WEB-DL.Atmos.DDP5.1.HDR.H.265-HBO.mkv
    4. Format                                   : Matroska
    5. Format version                           : Version 4 / Version 2
    6. File size                                : 6.20 GiB
    7. Duration                                 : 1 h 2 min
    8. Overall bit rate                         : 14.2 Mb/s
    9. Encoded date                             : UTC 2021-09-17 07:16:05
    10. Writing application                      : mkvmerge v61.0.0 (‘So‘) 64-bit
    11. Writing library                          : libebml v1.4.2 + libmatroska v1.6.4

    12. Video
    13. ID                                       : 1
    14. Format                                   : HEVC
    15. Format/Info                              : High Efficiency Video Coding
    16. Commercial name                          : HDR10
    17. Format profile                           : Main 10@L4@Main
    18. Codec ID                                 : V_MPEGH/ISO/HEVC
    19. Duration                                 : 1 h 1 min
    20. Bit rate                                 : 5 099 kb/s
    21. Width                                    : 1 920 pixels
    22. Height                                   : 1 080 pixels
    23. Display aspect ratio                     : 16:9
    24. Frame rate mode                          : Constant
    25. Frame rate                               : 23.976 (24000/1001) FPS
    26. Color space                              : YUV
    27. Chroma subsampling                       : 4:2:0 (Type 2)
    28. Bit depth                                : 10 bits
    29. Bits/(Pixel*Frame)                       : 0.103
    30. Stream size                              : 2.17 GiB (35%)
    31. Default                                  : Yes
    32. Forced                                   : No
    33. Color range                              : Limited
    34. Color primaries                          : BT.2020
    35. Transfer characteristics                 : PQ
    36. Matrix coefficients                      : BT.2020 non-constant
    37. Mastering display color primaries        : Display P3
    38. Mastering display luminance              : min: 0.0001 cd/m2, max: 1000 cd/m2
    39. Maximum Content Light Level              : 1004 cd/m2
    40. Maximum Frame-Average Light Level        : 120 cd/m2

    41. Audio #1
    42. ID                                       : 2
    43. Format                                   : E-AC-3
    44. Format/Info                              : Enhanced Audio Coding 3
    45. Codec ID                                 : A_EAC3
    46. Duration                                 : 1 h 2 min
    47. Bit rate mode                            : Constant
    48. Bit rate                                 : 640 kb/s
    49. Channel(s)                               : 6 channels
    50. Channel positions                        : Front: L C R, Side: L R, LFE
    51. Sampling rate                            : 48.0 kHz
    52. Frame rate                               : 187.500 FPS (256 SPF)
    53. Compression mode                         : Lossy
    54. Stream size                              : 286 MiB (5%)
    55. Title                                    : Brazilian Portuguese
    56. Language                                 : Portuguese
    57. Service kind                             : Complete Main
    58. Default                                  : No
    59. Forced                                   : No

    60. Audio #2
    61. ID                                       : 3
    62. Format                                   : E-AC-3
    63. Format/Info                              : Enhanced Audio Coding 3
    64. Format profile                           : E-AC-3+Atmos / E-AC-3
    65. Codec ID                                 : A_EAC3
    66. Duration                                 : 1 h 2 min
    67. Bit rate mode                            : Constant
    68. Bit rate                                 : 768 kb/s
    69. Channel(s)                               : 15 objects / 6 channels
    70. Channel positions                        : 15 objects / Front: L C R, Side: L R, LFE
    71. Sampling rate                            : 48.0 kHz
    72. Frame rate                               : 187.500 FPS (256 SPF)
    73. Compression mode                         : Lossy
    74. Stream size                              : 344 MiB (5%)
    75. Title                                    : English
    76. Language                                 : English
    77. Service kind                             : Complete Main
    78. Default                                  : No
    79. Forced                                   : No

    80. Audio #3
    81. ID                                       : 4
    82. Format                                   : E-AC-3
    83. Format/Info                              : Enhanced Audio Coding 3
    84. Codec ID                                 : A_EAC3
    85. Duration                                 : 1 h 2 min
    86. Bit rate mode                            : Constant
    87. Bit rate                                 : 640 kb/s
    88. Channel(s)                               : 6 channels
    89. Channel positions                        : Front: L C R, Side: L R, LFE
    90. Sampling rate                            : 48.0 kHz
    91. Frame rate                               : 187.500 FPS (256 SPF)
    92. Compression mode                         : Lossy
    93. Stream size                              : 286 MiB (5%)
    94. Title                                    : European Spanish
    95. Language                                 : Spanish
    96. Service kind                             : Complete Main
    97. Default                                  : No
    98. Forced                                   : No

    99. Audio #4
    100. ID                                       : 5
    101. Format                                   : E-AC-3
    102. Format/Info                              : Enhanced Audio Coding 3
    103. Codec ID                                 : A_EAC3
    104. Duration                                 : 1 h 2 min
    105. Bit rate mode                            : Constant
    106. Bit rate                                 : 640 kb/s
    107. Channel(s)                               : 6 channels
    108. Channel positions                        : Front: L C R, Side: L R, LFE
    109. Sampling rate                            : 48.0 kHz
    110. Frame rate                               : 187.500 FPS (256 SPF)
    111. Compression mode                         : Lossy
    112. Stream size                              : 286 MiB (5%)
    113. Title                                    : French
    114. Language                                 : French
    115. Service kind                             : Complete Main
    116. Default                                  : No
    117. Forced                                   : No

    118. Audio #5
    119. ID                                       : 6
    120. Format                                   : E-AC-3
    121. Format/Info                              : Enhanced Audio Coding 3
    122. Codec ID                                 : A_EAC3
    123. Duration                                 : 1 h 2 min
    124. Bit rate mode                            : Constant
    125. Bit rate                                 : 640 kb/s
    126. Channel(s)                               : 6 channels
    127. Channel positions                        : Front: L C R, Side: L R, LFE
    128. Sampling rate                            : 48.0 kHz
    129. Frame rate                               : 187.500 FPS (256 SPF)
    130. Compression mode                         : Lossy
    131. Stream size                              : 286 MiB (5%)
    132. Title                                    : German
    133. Language                                 : German
    134. Service kind                             : Complete Main
    135. Default                                  : No
    136. Forced                                   : No

    137. Audio #6
    138. ID                                       : 7
    139. Format                                   : E-AC-3
    140. Format/Info                              : Enhanced Audio Coding 3
    141. Codec ID                                 : A_EAC3
    142. Duration                                 : 1 h 2 min
    143. Bit rate mode                            : Constant
    144. Bit rate                                 : 640 kb/s
    145. Channel(s)                               : 6 channels
    146. Channel positions                        : Front: L C R, Side: L R, LFE
    147. Sampling rate                            : 48.0 kHz
    148. Frame rate                               : 187.500 FPS (256 SPF)
    149. Compression mode                         : Lossy
    150. Stream size                              : 286 MiB (5%)
    151. Title                                    : Hindi
    152. Language                                 : Hindi
    153. Service kind                             : Complete Main
    154. Default                                  : No
    155. Forced                                   : No

    156. Audio #7
    157. ID                                       : 8
    158. Format                                   : E-AC-3
    159. Format/Info                              : Enhanced Audio Coding 3
    160. Codec ID                                 : A_EAC3
    161. Duration                                 : 1 h 2 min
    162. Bit rate mode                            : Constant
    163. Bit rate                                 : 640 kb/s
    164. Channel(s)                               : 6 channels
    165. Channel positions                        : Front: L C R, Side: L R, LFE
    166. Sampling rate                            : 48.0 kHz
    167. Frame rate                               : 187.500 FPS (256 SPF)
    168. Compression mode                         : Lossy
    169. Stream size                              : 286 MiB (5%)
    170. Title                                    : Indonesian
    171. Language                                 : Indonesian
    172. Service kind                             : Complete Main
    173. Default                                  : No
    174. Forced                                   : No

    175. Audio #8
    176. ID                                       : 9
    177. Format                                   : E-AC-3
    178. Format/Info                              : Enhanced Audio Coding 3
    179. Codec ID                                 : A_EAC3
    180. Duration                                 : 1 h 2 min
    181. Bit rate mode                            : Constant
    182. Bit rate                                 : 640 kb/s
    183. Channel(s)                               : 6 channels
    184. Channel positions                        : Front: L C R, Side: L R, LFE
    185. Sampling rate                            : 48.0 kHz
    186. Frame rate                               : 187.500 FPS (256 SPF)
    187. Compression mode                         : Lossy
    188. Stream size                              : 286 MiB (5%)
    189. Title                                    : Japanese
    190. Language                                 : Japanese
    191. Service kind                             : Complete Main
    192. Default                                  : No
    193. Forced                                   : No

    194. Audio #9
    195. ID                                       : 10
    196. Format                                   : E-AC-3
    197. Format/Info                              : Enhanced Audio Coding 3
    198. Format profile                           : E-AC-3+Atmos / E-AC-3
    199. Codec ID                                 : A_EAC3
    200. Duration                                 : 1 h 2 min
    201. Bit rate mode                            : Constant
    202. Bit rate                                 : 768 kb/s
    203. Channel(s)                               : 15 objects / 6 channels
    204. Channel positions                        : 15 objects / Front: L C R, Side: L R, LFE
    205. Sampling rate                            : 48.0 kHz
    206. Frame rate                               : 187.500 FPS (256 SPF)
    207. Compression mode                         : Lossy
    208. Stream size                              : 344 MiB (5%)
    209. Title                                    : Korean
    210. Language                                 : Korean
    211. Service kind                             : Complete Main
    212. Default                                  : Yes
    213. Forced                                   : No

    214. Audio #10
    215. ID                                       : 11
    216. Format                                   : E-AC-3
    217. Format/Info                              : Enhanced Audio Coding 3
    218. Codec ID                                 : A_EAC3
    219. Duration                                 : 1 h 2 min
    220. Bit rate mode                            : Constant
    221. Bit rate                                 : 640 kb/s
    222. Channel(s)                               : 6 channels
    223. Channel positions                        : Front: L C R, Side: L R, LFE
    224. Sampling rate                            : 48.0 kHz
    225. Frame rate                               : 187.500 FPS (256 SPF)
    226. Compression mode                         : Lossy
    227. Stream size                              : 286 MiB (5%)
    228. Title                                    : Polish
    229. Language                                 : Polish
    230. Service kind                             : Complete Main
    231. Default                                  : No
    232. Forced                                   : No

    233. Audio #11
    234. ID                                       : 12
    235. Format                                   : E-AC-3
    236. Format/Info                              : Enhanced Audio Coding 3
    237. Codec ID                                 : A_EAC3
    238. Duration                                 : 1 h 2 min
    239. Bit rate mode                            : Constant
    240. Bit rate                                 : 640 kb/s
    241. Channel(s)                               : 6 channels
    242. Channel positions                        : Front: L C R, Side: L R, LFE
    243. Sampling rate                            : 48.0 kHz
    244. Frame rate                               : 187.500 FPS (256 SPF)
    245. Compression mode                         : Lossy
    246. Stream size                              : 286 MiB (5%)
    247. Title                                    : Spanish
    248. Language                                 : Spanish
    249. Service kind                             : Complete Main
    250. Default                                  : No
    251. Forced                                   : No

    252. Audio #12
    253. ID                                       : 13
    254. Format                                   : E-AC-3
    255. Format/Info                              : Enhanced Audio Coding 3
    256. Codec ID                                 : A_EAC3
    257. Duration                                 : 1 h 2 min
    258. Bit rate mode                            : Constant
    259. Bit rate                                 : 640 kb/s
    260. Channel(s)                               : 6 channels
    261. Channel positions                        : Front: L C R, Side: L R, LFE
    262. Sampling rate                            : 48.0 kHz
    263. Frame rate                               : 187.500 FPS (256 SPF)
    264. Compression mode                         : Lossy
    265. Stream size                              : 286 MiB (5%)
    266. Title                                    : Thai
    267. Language                                 : Thai
    268. Service kind                             : Complete Main
    269. Default                                  : No
    270. Forced                                   : No

    271. Audio #13
    272. ID                                       : 14
    273. Format                                   : E-AC-3
    274. Format/Info                              : Enhanced Audio Coding 3
    275. Codec ID                                 : A_EAC3
    276. Duration                                 : 1 h 2 min
    277. Bit rate mode                            : Constant
    278. Bit rate                                 : 640 kb/s
    279. Channel(s)                               : 6 channels
    280. Channel positions                        : Front: L C R, Side: L R, LFE
    281. Sampling rate                            : 48.0 kHz
    282. Frame rate                               : 187.500 FPS (256 SPF)
    283. Compression mode                         : Lossy
    284. Stream size                              : 286 MiB (5%)
    285. Title                                    : Turkish
    286. Language                                 : Turkish
    287. Service kind                             : Complete Main
    288. Default                                  : No
    289. Forced                                   : No

    290. Audio #14
    291. ID                                       : 15
    292. Format                                   : E-AC-3
    293. Format/Info                              : Enhanced Audio Coding 3
    294. Codec ID                                 : A_EAC3
    295. Duration                                 : 1 h 2 min
    296. Bit rate mode                            : Constant
    297. Bit rate                                 : 640 kb/s
    298. Channel(s)                               : 6 channels
    299. Channel positions                        : Front: L C R, Side: L R, LFE
    300. Sampling rate                            : 48.0 kHz
    301. Frame rate                               : 187.500 FPS (256 SPF)
    302. Compression mode                         : Lossy
    303. Stream size                              : 286 MiB (5%)
    304. Title                                    : Vietnamese
    305. Language                                 : Vietnamese
    306. Service kind                             : Complete Main
    307. Default                                  : No
    308. Forced                                   : No

    309. Text #1
    310. ID                                       : 16
    311. Format                                   : UTF-8
    312. Codec ID                                 : S_TEXT/UTF8
    313. Codec ID/Info                            : UTF-8 Plain Text
    314. Duration                                 : 1 h 0 min
    315. Bit rate                                 : 77 b/s
    316. Count of elements                        : 750
    317. Stream size                              : 34.5 KiB (0%)
    318. Language                                 : Arabic
    319. Default                                  : No
    320. Forced                                   : No

    321. Text #2
    322. ID                                       : 17
    323. Format                                   : UTF-8
    324. Codec ID                                 : S_TEXT/UTF8
    325. Codec ID/Info                            : UTF-8 Plain Text
    326. Duration                                 : 1 h 0 min
    327. Bit rate                                 : 46 b/s
    328. Count of elements                        : 750
    329. Stream size                              : 20.8 KiB (0%)
    330. Language                                 : Czech
    331. Default                                  : No
    332. Forced                                   : No

    333. Text #3
    334. ID                                       : 18
    335. Format                                   : UTF-8
    336. Codec ID                                 : S_TEXT/UTF8
    337. Codec ID/Info                            : UTF-8 Plain Text
    338. Duration                                 : 1 h 0 min
    339. Bit rate                                 : 50 b/s
    340. Count of elements                        : 750
    341. Stream size                              : 22.7 KiB (0%)
    342. Language                                 : Danish
    343. Default                                  : No
    344. Forced                                   : No

    345. Text #4
    346. ID                                       : 19
    347. Format                                   : UTF-8
    348. Codec ID                                 : S_TEXT/UTF8
    349. Codec ID/Info                            : UTF-8 Plain Text
    350. Duration                                 : 1 h 0 min
    351. Bit rate                                 : 46 b/s
    352. Count of elements                        : 749
    353. Stream size                              : 20.7 KiB (0%)
    354. Language                                 : German
    355. Default                                  : No
    356. Forced                                   : No

    357. Text #5
    358. ID                                       : 20
    359. Format                                   : UTF-8
    360. Codec ID                                 : S_TEXT/UTF8
    361. Codec ID/Info                            : UTF-8 Plain Text
    362. Duration                                 : 1 h 0 min
    363. Bit rate                                 : 85 b/s
    364. Count of elements                        : 750
    365. Stream size                              : 38.0 KiB (0%)
    366. Language                                 : Greek
    367. Default                                  : No
    368. Forced                                   : No

    369. Text #6
    370. ID                                       : 21
    371. Format                                   : UTF-8
    372. Codec ID                                 : S_TEXT/UTF8
    373. Codec ID/Info                            : UTF-8 Plain Text
    374. Duration                                 : 59 min 48 s
    375. Bit rate                                 : 51 b/s
    376. Count of elements                        : 738
    377. Stream size                              : 22.4 KiB (0%)
    378. Language                                 : English
    379. Default                                  : No
    380. Forced                                   : No

    381. Text #7
    382. ID                                       : 22
    383. Format                                   : UTF-8
    384. Codec ID                                 : S_TEXT/UTF8
    385. Codec ID/Info                            : UTF-8 Plain Text
    386. Duration                                 : 1 h 0 min
    387. Bit rate                                 : 50 b/s
    388. Count of elements                        : 751
    389. Stream size                              : 22.3 KiB (0%)
    390. Title                                    : Neutral
    391. Language                                 : Spanish
    392. Default                                  : No
    393. Forced                                   : No

    394. Text #8
    395. ID                                       : 23
    396. Format                                   : UTF-8
    397. Codec ID                                 : S_TEXT/UTF8
    398. Codec ID/Info                            : UTF-8 Plain Text
    399. Duration                                 : 1 h 0 min
    400. Bit rate                                 : 48 b/s
    401. Count of elements                        : 749
    402. Stream size                              : 21.6 KiB (0%)
    403. Title                                    : Castilian
    404. Language                                 : Spanish
    405. Default                                  : No
    406. Forced                                   : No

    407. Text #9
    408. ID                                       : 24
    409. Format                                   : UTF-8
    410. Codec ID                                 : S_TEXT/UTF8
    411. Codec ID/Info                            : UTF-8 Plain Text
    412. Duration                                 : 1 h 0 min
    413. Bit rate                                 : 49 b/s
    414. Count of elements                        : 750
    415. Stream size                              : 22.1 KiB (0%)
    416. Language                                 : Finnish
    417. Default                                  : No
    418. Forced                                   : No

    419. Text #10
    420. ID                                       : 25
    421. Format                                   : UTF-8
    422. Codec ID                                 : S_TEXT/UTF8
    423. Codec ID/Info                            : UTF-8 Plain Text
    424. Duration                                 : 1 h 0 min
    425. Bit rate                                 : 50 b/s
    426. Count of elements                        : 744
    427. Stream size                              : 22.6 KiB (0%)
    428. Language                                 : French
    429. Default                                  : No
    430. Forced                                   : No

    431. Text #11
    432. ID                                       : 26
    433. Format                                   : UTF-8
    434. Codec ID                                 : S_TEXT/UTF8
    435. Codec ID/Info                            : UTF-8 Plain Text
    436. Duration                                 : 1 h 0 min
    437. Bit rate                                 : 69 b/s
    438. Count of elements                        : 750
    439. Stream size                              : 30.7 KiB (0%)
    440. Language                                 : Hebrew
    441. Default                                  : No
    442. Forced                                   : No

    443. Text #12
    444. ID                                       : 27
    445. Format                                   : UTF-8
    446. Codec ID                                 : S_TEXT/UTF8
    447. Codec ID/Info                            : UTF-8 Plain Text
    448. Duration                                 : 1 h 0 min
    449. Bit rate                                 : 42 b/s
    450. Count of elements                        : 750
    451. Stream size                              : 18.9 KiB (0%)
    452. Title                                    : Croatian
    453. Language                                 : Croatian
    454. Default                                  : No
    455. Forced                                   : No

    456. Text #13
    457. ID                                       : 28
    458. Format                                   : UTF-8
    459. Codec ID                                 : S_TEXT/UTF8
    460. Codec ID/Info                            : UTF-8 Plain Text
    461. Duration                                 : 1 h 0 min
    462. Bit rate                                 : 46 b/s
    463. Count of elements                        : 749
    464. Stream size                              : 20.6 KiB (0%)
    465. Language                                 : Hungarian
    466. Default                                  : No
    467. Forced                                   : No

    468. Text #14
    469. ID                                       : 29
    470. Format                                   : UTF-8
    471. Codec ID                                 : S_TEXT/UTF8
    472. Codec ID/Info                            : UTF-8 Plain Text
    473. Duration                                 : 1 h 0 min
    474. Bit rate                                 : 51 b/s
    475. Count of elements                        : 747
    476. Stream size                              : 23.2 KiB (0%)
    477. Language                                 : Indonesian
    478. Default                                  : No
    479. Forced                                   : No

    480. Text #15
    481. ID                                       : 30
    482. Format                                   : UTF-8
    483. Codec ID                                 : S_TEXT/UTF8
    484. Codec ID/Info                            : UTF-8 Plain Text
    485. Duration                                 : 1 h 0 min
    486. Bit rate                                 : 49 b/s
    487. Count of elements                        : 750
    488. Stream size                              : 22.3 KiB (0%)
    489. Language                                 : Italian
    490. Default                                  : No
    491. Forced                                   : No

    492. Text #16
    493. ID                                       : 31
    494. Format                                   : UTF-8
    495. Codec ID                                 : S_TEXT/UTF8
    496. Codec ID/Info                            : UTF-8 Plain Text
    497. Duration                                 : 1 h 0 min
    498. Bit rate                                 : 43 b/s
    499. Count of elements                        : 681
    500. Stream size                              : 19.4 KiB (0%)
    501. Language                                 : Japanese
    502. Default                                  : No
    503. Forced                                   : No

    504. Text #17
    505. ID                                       : 32
    506. Format                                   : UTF-8
    507. Codec ID                                 : S_TEXT/UTF8
    508. Codec ID/Info                            : UTF-8 Plain Text
    509. Duration                                 : 1 h 0 min
    510. Bit rate                                 : 1 b/s
    511. Count of elements                        : 28
    512. Stream size                              : 682 Bytes (0%)
    513. Title                                    : Forced
    514. Language                                 : Korean
    515. Default                                  : Yes
    516. Forced                                   : Yes

    517. Text #18
    518. ID                                       : 33
    519. Format                                   : UTF-8
    520. Codec ID                                 : S_TEXT/UTF8
    521. Codec ID/Info                            : UTF-8 Plain Text
    522. Duration                                 : 1 h 0 min
    523. Bit rate                                 : 75 b/s
    524. Count of elements                        : 1045
    525. Stream size                              : 33.8 KiB (0%)
    526. Title                                    : SDH
    527. Language                                 : Korean
    528. Default                                  : No
    529. Forced                                   : No

    530. Text #19
    531. ID                                       : 34
    532. Format                                   : UTF-8
    533. Codec ID                                 : S_TEXT/UTF8
    534. Codec ID/Info                            : UTF-8 Plain Text
    535. Duration                                 : 1 h 0 min
    536. Bit rate                                 : 47 b/s
    537. Count of elements                        : 751
    538. Stream size                              : 21.1 KiB (0%)
    539. Language                                 : Malay
    540. Default                                  : No
    541. Forced                                   : No

    542. Text #20
    543. ID                                       : 35
    544. Format                                   : UTF-8
    545. Codec ID                                 : S_TEXT/UTF8
    546. Codec ID/Info                            : UTF-8 Plain Text
    547. Duration                                 : 1 h 0 min
    548. Bit rate                                 : 48 b/s
    549. Count of elements                        : 750
    550. Stream size                              : 21.6 KiB (0%)
    551. Title                                    : Bokmål
    552. Language                                 : Norwegian
    553. Default                                  : No
    554. Forced                                   : No

    555. Text #21
    556. ID                                       : 36
    557. Format                                   : UTF-8
    558. Codec ID                                 : S_TEXT/UTF8
    559. Codec ID/Info                            : UTF-8 Plain Text
    560. Duration                                 : 1 h 0 min
    561. Bit rate                                 : 48 b/s
    562. Count of elements                        : 743
    563. Stream size                              : 21.4 KiB (0%)
    564. Language                                 : Dutch
    565. Default                                  : No
    566. Forced                                   : No

    567. Text #22
    568. ID                                       : 37
    569. Format                                   : UTF-8
    570. Codec ID                                 : S_TEXT/UTF8
    571. Codec ID/Info                            : UTF-8 Plain Text
    572. Duration                                 : 1 h 0 min
    573. Bit rate                                 : 45 b/s
    574. Count of elements                        : 750
    575. Stream size                              : 20.4 KiB (0%)
    576. Language                                 : Polish
    577. Default                                  : No
    578. Forced                                   : No

    579. Text #23
    580. ID                                       : 38
    581. Format                                   : UTF-8
    582. Codec ID                                 : S_TEXT/UTF8
    583. Codec ID/Info                            : UTF-8 Plain Text
    584. Duration                                 : 1 h 0 min
    585. Bit rate                                 : 47 b/s
    586. Count of elements                        : 749
    587. Stream size                              : 21.3 KiB (0%)
    588. Language                                 : Portuguese
    589. Default                                  : No
    590. Forced                                   : No

    591. Text #24
    592. ID                                       : 39
    593. Format                                   : UTF-8
    594. Codec ID                                 : S_TEXT/UTF8
    595. Codec ID/Info                            : UTF-8 Plain Text
    596. Duration                                 : 1 h 0 min
    597. Bit rate                                 : 47 b/s
    598. Count of elements                        : 750
    599. Stream size                              : 21.4 KiB (0%)
    600. Title                                    : Brazilian
    601. Language                                 : Portuguese
    602. Default                                  : No
    603. Forced                                   : No

    604. Text #25
    605. ID                                       : 40
    606. Format                                   : UTF-8
    607. Codec ID                                 : S_TEXT/UTF8
    608. Codec ID/Info                            : UTF-8 Plain Text
    609. Duration                                 : 1 h 0 min
    610. Bit rate                                 : 49 b/s
    611. Count of elements                        : 750
    612. Stream size                              : 22.2 KiB (0%)
    613. Language                                 : Romanian
    614. Default                                  : No
    615. Forced                                   : No

    616. Text #26
    617. ID                                       : 41
    618. Format                                   : UTF-8
    619. Codec ID                                 : S_TEXT/UTF8
    620. Codec ID/Info                            : UTF-8 Plain Text
    621. Duration                                 : 1 h 0 min
    622. Bit rate                                 : 78 b/s
    623. Count of elements                        : 750
    624. Stream size                              : 34.8 KiB (0%)
    625. Language                                 : Russian
    626. Default                                  : No
    627. Forced                                   : No

    628. Text #27
    629. ID                                       : 42
    630. Format                                   : UTF-8
    631. Codec ID                                 : S_TEXT/UTF8
    632. Codec ID/Info                            : UTF-8 Plain Text
    633. Duration                                 : 1 h 0 min
    634. Bit rate                                 : 49 b/s
    635. Count of elements                        : 750
    636. Stream size                              : 22.1 KiB (0%)
    637. Language                                 : Swedish
    638. Default                                  : No
    639. Forced                                   : No

    640. Text #28
    641. ID                                       : 43
    642. Format                                   : UTF-8
    643. Codec ID                                 : S_TEXT/UTF8
    644. Codec ID/Info                            : UTF-8 Plain Text
    645. Duration                                 : 1 h 0 min
    646. Bit rate                                 : 130 b/s
    647. Count of elements                        : 751
    648. Stream size                              : 58.1 KiB (0%)
    649. Language                                 : Thai
    650. Default                                  : No
    651. Forced                                   : No

    652. Text #29
    653. ID                                       : 44
    654. Format                                   : UTF-8
    655. Codec ID                                 : S_TEXT/UTF8
    656. Codec ID/Info                            : UTF-8 Plain Text
    657. Duration                                 : 1 h 0 min
    658. Bit rate                                 : 50 b/s
    659. Count of elements                        : 750
    660. Stream size                              : 22.3 KiB (0%)
    661. Language                                 : Turkish
    662. Default                                  : No
    663. Forced                                   : No

    664. Text #30
    665. ID                                       : 45
    666. Format                                   : UTF-8
    667. Codec ID                                 : S_TEXT/UTF8
    668. Codec ID/Info                            : UTF-8 Plain Text
    669. Duration                                 : 1 h 0 min
    670. Bit rate                                 : 82 b/s
    671. Count of elements                        : 750
    672. Stream size                              : 36.7 KiB (0%)
    673. Language                                 : Ukrainian
    674. Default                                  : No
    675. Forced                                   : No

    676. Text #31
    677. ID                                       : 46
    678. Format                                   : UTF-8
    679. Codec ID                                 : S_TEXT/UTF8
    680. Codec ID/Info                            : UTF-8 Plain Text
    681. Duration                                 : 1 h 0 min
    682. Bit rate                                 : 64 b/s
    683. Count of elements                        : 752
    684. Stream size                              : 28.9 KiB (0%)
    685. Language                                 : Vietnamese
    686. Default                                  : No
    687. Forced                                   : No

    688. Text #32
    689. ID                                       : 47
    690. Format                                   : UTF-8
    691. Codec ID                                 : S_TEXT/UTF8
    692. Codec ID/Info                            : UTF-8 Plain Text
    693. Duration                                 : 1 h 0 min
    694. Bit rate                                 : 43 b/s
    695. Count of elements                        : 753
    696. Stream size                              : 19.4 KiB (0%)
    697. Title                                    : Simplified
    698. Language                                 : Chinese
    699. Default                                  : No
    700. Forced                                   : No

    701. Text #33
    702. ID                                       : 48
    703. Format                                   : UTF-8
    704. Codec ID                                 : S_TEXT/UTF8
    705. Codec ID/Info                            : UTF-8 Plain Text
    706. Duration                                 : 1 h 0 min
    707. Bit rate                                 : 44 b/s
    708. Count of elements                        : 752
    709. Stream size                              : 19.6 KiB (0%)
    710. Title                                    : Traditional
    711. Language                                 : Chinese
    712. Default                                  : No
    713. Forced                                   : No
    复制代码

    鱿鱼游戏1-1.jpg

    (请复制链接使用115 添加离线任务 进行下载)
    游客,如果您要查看本帖隐藏内容请回复开通VIP会员可免回复、不扣积分下载种子附件,点击开通VIP会员

    评分

    参与人数 2影视币 +10 收起 理由
    315150057 + 5 感谢分享!!
    AMD + 5 太感谢了

    查看全部评分

    古哥影视论坛www.gudage.cc 高清电影,蓝光电影,最新电影,电影天堂,影视帝国,人人影视

    该用户从未签到

    发表于 2021-10-12 02:04:00 | 显示全部楼层

    回帖奖励 +1 YSB影视币

    虽然看完了,但是还是感谢支持楼主分享
    古哥影视论坛www.gudage.cc 高清电影,蓝光电影,最新电影,电影天堂,影视帝国,人人影视
    回复 支持 反对

    使用道具 举报

    该用户从未签到

    发表于 2021-10-12 02:07:16 | 显示全部楼层

    回帖奖励 +1 YSB影视币

    能不能下啊
    古哥影视论坛www.gudage.cc 高清电影,蓝光电影,最新电影,电影天堂,影视帝国,人人影视
    回复 支持 反对

    使用道具 举报

    该用户从未签到

    发表于 2021-10-12 02:10:37 | 显示全部楼层

    回帖奖励 +1 YSB影视币

    感谢楼主分享
    古哥影视论坛www.gudage.cc 高清电影,蓝光电影,最新电影,电影天堂,影视帝国,人人影视
    回复 支持 反对

    使用道具 举报

    该用户从未签到

    发表于 2021-10-12 02:15:11 | 显示全部楼层

    回帖奖励 +1 YSB影视币

    感谢分享感谢分享
    古哥影视论坛www.gudage.cc 高清电影,蓝光电影,最新电影,电影天堂,影视帝国,人人影视
    回复 支持 反对

    使用道具 举报

  • TA的每日心情
    开心
    昨天 07:03
  • 签到天数: 42 天

    [LV.5]常住居民I

    发表于 2021-10-12 07:22:27 | 显示全部楼层

    回帖奖励 +1 YSB影视币

    感谢楼主分享,值得一看的韩剧!
    古哥影视论坛www.gudage.cc 高清电影,蓝光电影,最新电影,电影天堂,影视帝国,人人影视
    回复 支持 反对

    使用道具 举报

  • TA的每日心情
    开心
    8 小时前
  • 签到天数: 170 天

    [LV.7]常住居民III

    发表于 2021-10-12 07:37:07 | 显示全部楼层

    回帖奖励 +1 YSB影视币

    比较热门的韩剧,感谢分享
    古哥影视论坛www.gudage.cc 高清电影,蓝光电影,最新电影,电影天堂,影视帝国,人人影视
    回复 支持 反对

    使用道具 举报

    该用户从未签到

    发表于 2021-10-12 07:56:57 | 显示全部楼层

    回帖奖励 +1 YSB影视币

    看起来不错  下来看看
    古哥影视论坛www.gudage.cc 高清电影,蓝光电影,最新电影,电影天堂,影视帝国,人人影视
    回复 支持 反对

    使用道具 举报

  • TA的每日心情
    开心
    昨天 09:39
  • 签到天数: 225 天

    [LV.7]常住居民III

    发表于 2021-10-12 08:33:53 | 显示全部楼层

    回帖奖励 +1 YSB影视币

    感谢楼主分享
    古哥影视论坛www.gudage.cc 高清电影,蓝光电影,最新电影,电影天堂,影视帝国,人人影视
    回复 支持 反对

    使用道具 举报

  • TA的每日心情

    2021-3-26 11:11
  • 签到天数: 1 天

    [LV.1]初来乍到

    发表于 2021-10-12 09:05:37 | 显示全部楼层

    回帖奖励 +1 YSB影视币

    感谢楼主  喜欢这个剧
    古哥影视论坛www.gudage.cc 高清电影,蓝光电影,最新电影,电影天堂,影视帝国,人人影视
    回复 支持 反对

    使用道具 举报

    该用户从未签到

    发表于 2021-10-12 09:07:16 | 显示全部楼层

    回帖奖励 +1 YSB影视币

    感谢楼主分享
    古哥影视论坛www.gudage.cc 高清电影,蓝光电影,最新电影,电影天堂,影视帝国,人人影视
    回复 支持 反对

    使用道具 举报

    该用户从未签到

    发表于 2021-10-12 09:20:17 | 显示全部楼层

    回帖奖励 +1 YSB影视币

    十分感谢分享!!!
    古哥影视论坛www.gudage.cc 高清电影,蓝光电影,最新电影,电影天堂,影视帝国,人人影视
    回复 支持 反对

    使用道具 举报

  • TA的每日心情
    擦汗
    2021-1-21 14:08
  • 签到天数: 1 天

    [LV.1]初来乍到

    发表于 2021-10-12 09:25:01 | 显示全部楼层

    回帖奖励 +1 YSB影视币

    感谢支持楼主分享
    古哥影视论坛www.gudage.cc 高清电影,蓝光电影,最新电影,电影天堂,影视帝国,人人影视
    回复 支持 反对

    使用道具 举报

    该用户从未签到

    发表于 2021-10-12 09:25:10 | 显示全部楼层

    回帖奖励 +1 YSB影视币

    这么高的码率啊,不知道在电视上能不能放
    古哥影视论坛www.gudage.cc 高清电影,蓝光电影,最新电影,电影天堂,影视帝国,人人影视
    回复 支持 反对

    使用道具 举报

    该用户从未签到

    发表于 2021-10-12 09:34:40 | 显示全部楼层

    回帖奖励 +1 YSB影视币

    感谢楼主分享
    古哥影视论坛www.gudage.cc 高清电影,蓝光电影,最新电影,电影天堂,影视帝国,人人影视
    回复 支持 反对

    使用道具 举报

    该用户从未签到

    发表于 2021-10-12 09:50:30 | 显示全部楼层

    回帖奖励 +1 YSB影视币

    谢谢楼主分享
    古哥影视论坛www.gudage.cc 高清电影,蓝光电影,最新电影,电影天堂,影视帝国,人人影视
    回复 支持 反对

    使用道具 举报

    您需要登录后才可以回帖 登录 | 注册(分享大片)

    本版积分规则

    免责声明
    本站提供网上学习交流和自由讨论使用,所有资源均来自互联网公开渠道,发布和个人言论并不代表本站立场,本站不负任何责任.
    如发现有侵权行为,请与我们联系.我们将立刻从网站上删除,并向所有持版权者致最深歉意.
    已经安全运行

    QQ|小黑屋|手机版|Archiver|古哥论坛

    GMT+8, 2021-10-23 15:50 , Processed in 0.093600 second(s), 23 queries , Gzip On.

    Powered by Discuz! X3.4

    Copyright © 2001-2020, Tencent Cloud.

    快速回复 返回顶部 返回列表