古哥论坛

 找回密码
 注册(分享大片)
查看: 1257|回复: 207

[韩剧][鱿鱼游戏 全9集]Squid Game S01 2021 NF 2160p HEVC HDR DD5.1(64.78GB)

  [复制链接]
  • TA的每日心情
    无聊
    7 天前
  • 签到天数: 4 天

    [LV.2]偶尔看看I

    发表于 2021-10-12 00:03:22 | 显示全部楼层 |阅读模式
    4K天堂
    本帖最后由 r6472279 于 2021-10-12 00:42 编辑

    Squid Game S01 2021 NF WEB-DL 2160p HEVC HDR DD 5.1 Atmos(N0TTZ@TTG)
    [韩剧][鱿鱼游戏 全9集][多语言字幕/中字]
    64.78GB
    鱿鱼游戏.jpg
    ◎译  名 鱿鱼游戏/Round Six/Squid Game/第六轮
    ◎片  名 오징어 게임
    ◎年  代 2021
    ◎产  地 韩国
    ◎类  别 悬疑 / 惊悚
    ◎语  言 韩语
    ◎上映日期 2021-09-17(韩国)
    ◎IMDb评分  8.3/10 from 15550 users
    ◎IMDb链接  https://www.imdb.com/title/tt10919420/
    ◎豆瓣评分 7.8/10 from 100043 users
    ◎豆瓣链接 https://movie.douban.com/subject/34812928/
    ◎集  数 9
    ◎片  长 60分钟
    ◎导  演 黄东赫 Dong-hyuk Hwang
    ◎编  剧 黄东赫 Dong-hyuk Hwang
    ◎主  演 李政宰 Jung-jae Lee
           朴海秀 Hae-soo Park
           魏化俊 Ha-joon Wi
           孔刘 Yoo Gong
           李秉宪 Byeng-hun Lee
           吴永寿 오영수
           郑浩妍 Hoyeon Jung
           许成泰 Seong-tae Heo
           金周灵 Joo-ryeong Kim
           李瑜美 Yoo-mi Lee
           阿努帕姆·特里帕蒂 Anupam Tripathi
           金英玉 Young-ok Kim
           金范来 Kim Beop-rae
           李书焕 Seo-hwan Lee
           金英善 Yeong-seon Kim
           朴惠珍 Hye-jin Park
           姜末琴 Mal-Geum Kang
           杰弗里·朱利亚诺 Geoffrey Giuliano
           约翰 D.迈克斯 John D. Michaels
           丹尼尔·C·肯尼迪 Daniel C Kennedy
           李政俊 Lee Jung-jun
           许栋元 Heo Dong-won
           吴荣秀 Young Soo Oh

    ◎标  签 Netflix | 韩剧 | 悬疑 | 韩国 | 惊悚 | 李政宰 | 2021 | 孔刘

    ◎简  介

      数百名经济拮据的人接受了一个奇怪的邀请,参加儿童游戏比赛。在这场游戏中,有诱人的奖金,也有致命的高风险。


    1. Format                                   : Matroska
    2. Format version                           : Version 4
    3. File size                                : 6.92 GiB
    4. Duration                                 : 59 min 42 s
    5. Overall bit rate                         : 16.6 Mb/s
    6. Writing application                      : mkvmerge v61.0.0 (‘So‘) 64-bit
    7. Writing library                          : libebml v1.4.2 + libmatroska v1.6.4

    8. Video
    9. ID                                       : 1
    10. Format                                   : HEVC
    11. Format/Info                              : High Efficiency Video Coding
    12. Format profile                           : Main 10@L5.1@High
    13. HDR format                               : Dolby Vision, Version 1.0, dvhe.08.06, BL+RPU / SMPTE ST 2086, HDR10 compatible
    14. Codec ID                                 : V_MPEGH/ISO/HEVC
    15. Duration                                 : 58 min 17 s
    16. Bit rate                                 : 14.7 Mb/s
    17. Width                                    : 3 840 pixels
    18. Height                                   : 1 920 pixels
    19. Display aspect ratio                     : 2.000
    20. Frame rate mode                          : Constant
    21. Frame rate                               : 23.976 (24000/1001) FPS
    22. Color space                              : YUV
    23. Chroma subsampling                       : 4:2:0 (Type 2)
    24. Bit depth                                : 10 bits
    25. Bits/(Pixel*Frame)                       : 0.083
    26. Stream size                              : 6.01 GiB (87%)
    27. Writing library                          : x265 3.3+31-g431a22e82:[Windows][GCC 11.0.0][64 bit] 10bit
    28. Encoding settings                        : cpuid=1111039 / frame-threads=4 / numa-pools=28 / wpp / no-pmode / no-pme / no-psnr / no-ssim / log-level=2 / input-csp=1 / input-res=3840x1920 / interlace=0 / total-frames=79394 / level-idc=51 / high-tier=1 / uhd-bd=0 / ref=4 / no-allow-non-conformance / repeat-headers / annexb / aud / hrd / info / hash=0 / no-temporal-layers / open-gop / min-keyint=23 / keyint=250 / gop-lookahead=0 / bframes=4 / b-adapt=2 / b-pyramid / bframe-bias=0 / rc-lookahead=25 / lookahead-slices=4 / scenecut=40 / hist-scenecut=0 / radl=0 / no-splice / no-intra-refresh / ctu=64 / min-cu-size=8 / rect / no-amp / max-tu-size=32 / tu-inter-depth=1 / tu-intra-depth=1 / limit-tu=0 / rdoq-level=2 / dynamic-rd=0.00 / no-ssim-rd / signhide / no-tskip / nr-intra=0 / nr-inter=0 / no-constrained-intra / strong-intra-smoothing / max-merge=3 / limit-refs=3 / limit-modes / me=3 / subme=3 / merange=57 / temporal-mvp / no-frame-dup / no-hme / weightp / no-weightb / no-analyze-src-pics / deblock=-2:-2 / no-sao / no-sao-non-deblock / rd=4 / selective-sao=0 / no-early-skip / rskip / no-fast-intra / no-tskip-fast / no-cu-lossless / no-b-intra / no-splitrd-skip / rdpenalty=0 / psy-rd=2.00 / psy-rdoq=1.00 / no-rd-refine / no-lossless / cbqpoffs=0 / crqpoffs=0 / rc=crf / crf=16.0 / qcomp=0.60 / qpstep=4 / stats-write=0 / stats-read=0 / vbv-maxrate=98000 / vbv-bufsize=98000 / vbv-init=0.9 / crf-max=0.0 / crf-min=0.0 / ipratio=1.40 / pbratio=1.30 / aq-mode=1 / aq-strength=1.00 / cutree / zone-count=0 / no-strict-cbr / qg-size=32 / no-rc-grain / qpmax=69 / qpmin=0 / no-const-vbv / sar=0 / overscan=0 / videoformat=5 / range=0 / colorprim=9 / transfer=16 / colormatrix=9 / chromaloc=1 / chromaloc-top=2 / chromaloc-bottom=2 / display-window=0 / master-display=G(13250,34500)B(7500,3000)R(34000,16000)WP(15635,16450)L(10000000,1) / cll=1156,402 / min-luma=0 / max-luma=1023 / log2-max-poc-lsb=8 / vui-timing-info / vui-hrd-info / slices=1 / no-opt-qp-pps / no-opt-ref-list-length-pps / no-multi-pass-opt-rps / scenecut-bias=0.05 / hist-threshold=0.01 / no-opt-cu-delta-qp / no-aq-motion / hdr10 / hdr10-opt / no-dhdr10-opt / no-idr-recovery-sei / analysis-reuse-level=0 / analysis-save-reuse-level=0 / analysis-load-reuse-level=0 / scale-factor=0 / refine-intra=0 / refine-inter=0 / refine-mv=1 / refine-ctu-distortion=0 / no-limit-sao / ctu-info=0 / no-lowpass-dct / refine-analysis-type=0 / copy-pic=1 / max-ausize-factor=1.0 / no-dynamic-refine / no-single-sei / no-hevc-aq / no-svt / no-field / qp-adaptation-range=1.00 / no-scenecut-aware-qpconformance-window-offsets / right=0 / bottom=0 / decoder-max-rate=0
    29. Default                                  : Yes
    30. Forced                                   : No
    31. Color range                              : Limited
    32. Color primaries                          : BT.2020
    33. Transfer characteristics                 : PQ
    34. Matrix coefficients                      : BT.2020 non-constant
    35. Mastering display color primaries        : Display P3
    36. Mastering display luminance              : min: 0.0001 cd/m2, max: 1000 cd/m2
    37. Maximum Content Light Level              : 1156 cd/m2
    38. Maximum Frame-Average Light Level        : 402 cd/m2

    39. Audio #1
    40. ID                                       : 2
    41. Format                                   : E-AC-3 JOC
    42. Format/Info                              : Enhanced AC-3 with Joint Object Coding
    43. Commercial name                          : Dolby Digital Plus with Dolby Atmos
    44. Codec ID                                 : A_EAC3
    45. Duration                                 : 59 min 42 s
    46. Bit rate mode                            : Constant
    47. Bit rate                                 : 768 kb/s
    48. Channel(s)                               : 6 channels
    49. Channel layout                           : L R C LFE Ls Rs
    50. Sampling rate                            : 48.0 kHz
    51. Frame rate                               : 31.250 FPS (1536 SPF)
    52. Compression mode                         : Lossy
    53. Stream size                              : 328 MiB (5%)
    54. Language                                 : Korean
    55. Service kind                             : Complete Main
    56. Default                                  : Yes
    57. Forced                                   : No
    58. Complexity index                         : 16
    59. Number of dynamic objects                : 15
    60. Bed channel count                        : 1 channel
    61. Bed channel configuration                : LFE

    62. Audio #2
    63. ID                                       : 3
    64. Format                                   : E-AC-3 JOC
    65. Format/Info                              : Enhanced AC-3 with Joint Object Coding
    66. Commercial name                          : Dolby Digital Plus with Dolby Atmos
    67. Codec ID                                 : A_EAC3
    68. Duration                                 : 59 min 42 s
    69. Bit rate mode                            : Constant
    70. Bit rate                                 : 768 kb/s
    71. Channel(s)                               : 6 channels
    72. Channel layout                           : L R C LFE Ls Rs
    73. Sampling rate                            : 48.0 kHz
    74. Frame rate                               : 31.250 FPS (1536 SPF)
    75. Compression mode                         : Lossy
    76. Stream size                              : 328 MiB (5%)
    77. Language                                 : English
    78. Service kind                             : Complete Main
    79. Default                                  : No
    80. Forced                                   : No
    81. Complexity index                         : 16
    82. Number of dynamic objects                : 15
    83. Bed channel count                        : 1 channel
    84. Bed channel configuration                : LFE

    85. Audio #3
    86. ID                                       : 4
    87. Format                                   : E-AC-3
    88. Format/Info                              : Enhanced AC-3
    89. Commercial name                          : Dolby Digital Plus
    90. Codec ID                                 : A_EAC3
    91. Duration                                 : 59 min 42 s
    92. Bit rate mode                            : Constant
    93. Bit rate                                 : 640 kb/s
    94. Channel(s)                               : 6 channels
    95. Channel layout                           : L R C LFE Ls Rs
    96. Sampling rate                            : 48.0 kHz
    97. Frame rate                               : 31.250 FPS (1536 SPF)
    98. Compression mode                         : Lossy
    99. Stream size                              : 273 MiB (4%)
    100. Language                                 : French
    101. Service kind                             : Complete Main
    102. Default                                  : No
    103. Forced                                   : No

    104. Text #1
    105. ID                                       : 5
    106. Format                                   : UTF-8
    107. Codec ID                                 : S_TEXT/UTF8
    108. Codec ID/Info                            : UTF-8 Plain Text
    109. Duration                                 : 51 min 18 s
    110. Bit rate                                 : 57 b/s
    111. Count of elements                        : 703
    112. Stream size                              : 21.5 KiB (0%)
    113. Language                                 : English
    114. Default                                  : No
    115. Forced                                   : No

    116. Text #2
    117. ID                                       : 6
    118. Format                                   : UTF-8
    119. Codec ID                                 : S_TEXT/UTF8
    120. Codec ID/Info                            : UTF-8 Plain Text
    121. Duration                                 : 55 min 59 s
    122. Bit rate                                 : 72 b/s
    123. Count of elements                        : 1017
    124. Stream size                              : 29.9 KiB (0%)
    125. Title                                    : SDH
    126. Language                                 : English
    127. Default                                  : No
    128. Forced                                   : No

    129. Text #3
    130. ID                                       : 7
    131. Format                                   : UTF-8
    132. Codec ID                                 : S_TEXT/UTF8
    133. Codec ID/Info                            : UTF-8 Plain Text
    134. Duration                                 : 58 min 5 s
    135. Bit rate                                 : 0 b/s
    136. Count of elements                        : 7
    137. Stream size                              : 180 Bytes (0%)
    138. Title                                    : Forced
    139. Language                                 : Korean
    140. Default                                  : No
    141. Forced                                   : No

    142. Text #4
    143. ID                                       : 8
    144. Format                                   : UTF-8
    145. Codec ID                                 : S_TEXT/UTF8
    146. Codec ID/Info                            : UTF-8 Plain Text
    147. Duration                                 : 58 min 5 s
    148. Bit rate                                 : 81 b/s
    149. Count of elements                        : 995
    150. Stream size                              : 34.9 KiB (0%)
    151. Title                                    : SDH
    152. Language                                 : Korean
    153. Default                                  : No
    154. Forced                                   : No

    155. Text #5
    156. ID                                       : 9
    157. Format                                   : UTF-8
    158. Codec ID                                 : S_TEXT/UTF8
    159. Codec ID/Info                            : UTF-8 Plain Text
    160. Duration                                 : 58 min 6 s
    161. Bit rate                                 : 49 b/s
    162. Count of elements                        : 640
    163. Stream size                              : 21.1 KiB (0%)
    164. Language                                 : French
    165. Default                                  : No
    166. Forced                                   : No

    167. Text #6
    168. ID                                       : 10
    169. Format                                   : UTF-8
    170. Codec ID                                 : S_TEXT/UTF8
    171. Codec ID/Info                            : UTF-8 Plain Text
    172. Duration                                 : 58 min 6 s
    173. Bit rate                                 : 1 b/s
    174. Count of elements                        : 19
    175. Stream size                              : 586 Bytes (0%)
    176. Title                                    : Forced
    177. Language                                 : French
    178. Default                                  : No
    179. Forced                                   : No
    复制代码


    (请复制链接使用115 添加离线任务 进行下载)
    游客,如果您要查看本帖隐藏内容请回复开通VIP会员可免回复、不扣积分下载种子附件,点击开通VIP会员
    古哥影视论坛www.gudage.cc 高清电影,蓝光电影,最新电影,电影天堂,影视帝国,人人影视

    该用户从未签到

    发表于 2021-10-12 00:08:30 | 显示全部楼层
    感谢楼主分享,下载了
    古哥影视论坛www.gudage.cc 高清电影,蓝光电影,最新电影,电影天堂,影视帝国,人人影视
    回复 支持 反对

    使用道具 举报

    该用户从未签到

    发表于 2021-10-12 00:10:06 | 显示全部楼层
    感谢楼主分享
    古哥影视论坛www.gudage.cc 高清电影,蓝光电影,最新电影,电影天堂,影视帝国,人人影视
    回复 支持 反对

    使用道具 举报

  • TA的每日心情
    奋斗
    13 小时前
  • 签到天数: 269 天

    [LV.8]以坛为家I

    发表于 2021-10-12 00:11:13 | 显示全部楼层
    已看完,对人性的揭示挺到位。
    古哥影视论坛www.gudage.cc 高清电影,蓝光电影,最新电影,电影天堂,影视帝国,人人影视
    回复 支持 反对

    使用道具 举报

  • TA的每日心情
    开心
    12 小时前
  • 签到天数: 116 天

    [LV.6]常住居民II

    发表于 2021-10-12 00:45:41 | 显示全部楼层

    回帖奖励 +1 YSB影视币

    感谢分享强力支持
    古哥影视论坛www.gudage.cc 高清电影,蓝光电影,最新电影,电影天堂,影视帝国,人人影视
    回复 支持 反对

    使用道具 举报

    该用户从未签到

    发表于 2021-10-12 00:50:04 | 显示全部楼层

    回帖奖励 +1 YSB影视币

    太好了,剧荒中,都说这个剧好看,感谢!
    古哥影视论坛www.gudage.cc 高清电影,蓝光电影,最新电影,电影天堂,影视帝国,人人影视
    回复 支持 反对

    使用道具 举报

    该用户从未签到

    发表于 2021-10-12 02:04:49 | 显示全部楼层

    回帖奖励 +1 YSB影视币

    听说很不错,看看,多谢
    古哥影视论坛www.gudage.cc 高清电影,蓝光电影,最新电影,电影天堂,影视帝国,人人影视
    回复 支持 反对

    使用道具 举报

    该用户从未签到

    发表于 2021-10-12 02:26:00 | 显示全部楼层

    回帖奖励 +1 YSB影视币

    强力支持,非常感谢
    古哥影视论坛www.gudage.cc 高清电影,蓝光电影,最新电影,电影天堂,影视帝国,人人影视
    回复 支持 反对

    使用道具 举报

    该用户从未签到

    发表于 2021-10-12 08:05:08 | 显示全部楼层

    回帖奖励 +1 YSB影视币

    谢谢分享  下来看看
    古哥影视论坛www.gudage.cc 高清电影,蓝光电影,最新电影,电影天堂,影视帝国,人人影视
    回复 支持 反对

    使用道具 举报

    该用户从未签到

    发表于 2021-10-12 08:24:36 | 显示全部楼层

    回帖奖励 +1 YSB影视币

    十分感谢分享!!!
    古哥影视论坛www.gudage.cc 高清电影,蓝光电影,最新电影,电影天堂,影视帝国,人人影视
    回复 支持 反对

    使用道具 举报

    该用户从未签到

    发表于 2021-10-12 08:54:10 | 显示全部楼层

    回帖奖励 +1 YSB影视币

    这个一定要支持一下咯
    古哥影视论坛www.gudage.cc 高清电影,蓝光电影,最新电影,电影天堂,影视帝国,人人影视
    回复 支持 反对

    使用道具 举报

    该用户从未签到

    发表于 2021-10-12 08:55:39 | 显示全部楼层

    回帖奖励 +1 YSB影视币

    李政宰 Jung-jae Lee
    古哥影视论坛www.gudage.cc 高清电影,蓝光电影,最新电影,电影天堂,影视帝国,人人影视
    回复 支持 反对

    使用道具 举报

    该用户从未签到

    发表于 2021-10-12 08:58:43 | 显示全部楼层

    回帖奖励 +1 YSB影视币

    多谢楼主分享好剧。
    古哥影视论坛www.gudage.cc 高清电影,蓝光电影,最新电影,电影天堂,影视帝国,人人影视
    回复 支持 反对

    使用道具 举报

    该用户从未签到

    发表于 2021-10-12 09:04:38 | 显示全部楼层

    回帖奖励 +1 YSB影视币

    感谢楼主分享,下载了
    古哥影视论坛www.gudage.cc 高清电影,蓝光电影,最新电影,电影天堂,影视帝国,人人影视
    回复 支持 反对

    使用道具 举报

    该用户从未签到

    发表于 2021-10-12 10:15:56 | 显示全部楼层

    回帖奖励 +1 YSB影视币

    感谢分享,虽然已经看过了
    古哥影视论坛www.gudage.cc 高清电影,蓝光电影,最新电影,电影天堂,影视帝国,人人影视
    回复 支持 反对

    使用道具 举报

    该用户从未签到

    发表于 2021-10-12 10:24:42 | 显示全部楼层

    回帖奖励 +1 YSB影视币

    来了来了他来了,谢谢楼主分享
    古哥影视论坛www.gudage.cc 高清电影,蓝光电影,最新电影,电影天堂,影视帝国,人人影视
    回复 支持 反对

    使用道具 举报

    该用户从未签到

    发表于 2021-10-12 10:26:56 | 显示全部楼层

    回帖奖励 +1 YSB影视币

    感谢楼主分享,太快了。
    古哥影视论坛www.gudage.cc 高清电影,蓝光电影,最新电影,电影天堂,影视帝国,人人影视
    回复 支持 反对

    使用道具 举报

    该用户从未签到

    发表于 2021-10-12 10:27:36 | 显示全部楼层

    回帖奖励 +1 YSB影视币

    听说最近很火
    古哥影视论坛www.gudage.cc 高清电影,蓝光电影,最新电影,电影天堂,影视帝国,人人影视
    回复 支持 反对

    使用道具 举报

    该用户从未签到

    发表于 2021-10-12 11:10:10 | 显示全部楼层

    回帖奖励 +1 YSB影视币

    看看怎么样
    古哥影视论坛www.gudage.cc 高清电影,蓝光电影,最新电影,电影天堂,影视帝国,人人影视
    回复 支持 反对

    使用道具 举报

    您需要登录后才可以回帖 登录 | 注册(分享大片)

    本版积分规则

    免责声明
    本站提供网上学习交流和自由讨论使用,所有资源均来自互联网公开渠道,发布和个人言论并不代表本站立场,本站不负任何责任.
    如发现有侵权行为,请与我们联系.我们将立刻从网站上删除,并向所有持版权者致最深歉意.
    已经安全运行

    QQ|小黑屋|手机版|Archiver|古哥论坛

    GMT+8, 2021-10-23 15:16 , Processed in 0.078000 second(s), 21 queries , Gzip On.

    Powered by Discuz! X3.4

    Copyright © 2001-2020, Tencent Cloud.

    快速回复 返回顶部 返回列表