古哥论坛

 找回密码
 注册(分享大片)
查看: 1074|回复: 64

[1080P] [征途]Double.World.2020.CHINESE.1080p.BluRay.x264.DTS-HD.MA.5.1-MT 11.51GB

[复制链接]

该用户从未签到

发表于 2021-7-15 23:16:41 | 显示全部楼层 |阅读模式
4K天堂

◎译  名 Double World
◎片  名 征途
◎年  代 2020
◎产  地 中国大陆
◎类  别 动作 / 奇幻 / 冒险
◎语  言 汉语普通话
◎上映日期 2020-07-24(中国大陆网络)
◎豆瓣评分 5.1/10 from 20758 users
◎豆瓣链接 https://movie.douban.com/subject/26705567/
◎片  长 110分钟
◎导  演 陈德森 Teddy Chan
◎编  剧 刘奋斗 Fendou Liu / 文宁 Ning Wen
◎主  演 刘宪华 Henry Lau
      何润东 Peter Ho
      林辰涵 Chenhan Lin
      蒋璐霞 Luxia Jiang
      罗子溢 Chung Him Law
      胡明 Ming Hu
      许明虎 Tiger Xu
      郑浩南 Mark Cheng
      施诗 Shi Shi
      张宁江 Ningjiang Zhang
      王延龙 Yanlong Wang
      杜晓帆 Xiaofan Du
      李熙瑜 Xiyu Li
      李熙蕾 Xilei Li
      许翔 Xiang Xu
      陈奕名 Yiming Chen
      艾米 Aimee
      都桂宇 Guiyu Du

◎标  签 游戏改编 | 中国 | 动作 | 奇幻 | 古装 | 魔幻 | 3D | 冒险

◎简  介  

  故事发生在虚构的中原大陆。十国之中,南赵国与北燕国比邻而居。为了防御日益强大的北燕,南赵举办比武大会,选拔将才。消息传到偏僻的清源村,村民东一龙想成为家族的举旗人,代表清源村家族出赛,村民们却质疑他的资格,经过一番努力,一龙终于踏上了与武士楚魂的征途……

◎获奖情况

  第39届香港电影金像奖 ?(2020)
  最佳动作设计(提名) 董玮
  最佳视觉效果(提名) 李帅?/?魏明?/?徐建
Video
ID : 1
Format : AVC
Format/Info : Advanced Video Codec
Format profile : [email protected]
Format settings : CABAC / 5 Ref Frames
Format settings, CABAC : Yes
Format settings, Reference frames : 5 frames
Codec ID : V_MPEG4/ISO/AVC
Duration : 1 h 50 min
Bit rate : 11.0 Mb/s
Width : 1 920 pixels
Height : 808 pixels
Display aspect ratio : 2.40:1
Frame rate mode : Constant
Frame rate : 23.976 (24000/1001/189150) FPS
Color space : YUV
Chroma subsampling : 4:2:0
Bit depth : 8 bits
Scan type : Progressive
Bits/(Pixel*Frame) : 0.296
Stream size : 8.46 GiB (73%)
Writing library : x264 core 157 r2938 2b00a84 [email protected] Mod
Encoding settings : cabac=1 / ref=5 / deblock=1:-3:-3 / analyse=0x3:0x133 / me=umh / subme=10 / psy=1 / psy_rd=1.05:0.00 / mixed_ref=1 / me_range=32 / chroma_me=1 / trellis=2 / 8x8dct=1 / cqm=0 / deadzone=21,11 / fast_pskip=0 / chroma_qp_offset=-2 / threads=12 / lookahead_threads=2 / sliced_threads=0 / nr=0 / decimate=0 / interlaced=0 / bluray_compat=0 / constrained_intra=0 / bframes=8 / b_pyramid=2 / b_adapt=2 / b_bias=0 / direct=3 / weightb=1 / open_gop=0 / weightp=2 / keyint=250 / keyint_min=24 / scenecut=40 / intra_refresh=0 / rc_lookahead=250 / rc=crf / mbtree=0 / crf=16.8 / qcomp=0.60 / qpmin=0 / qpmax=69 / qpstep=4 / vbv_maxrate=62500 / vbv_bufsize=78125 / crf_max=0.0 / nal_hrd=none / filler=0 / ip_ratio=1.30 / pb_ratio=1.20 / aq=3:0.80
Language : Chinese
Default : Yes
Forced : No
Color range : Limited
Color primaries : BT.709
Matrix coefficients : BT.709

Audio
ID : 2
Format : DTS XLL
Format/Info : Digital Theater Systems
Commercial name : DTS-HD Master Audio
Codec ID : A_DTS
Duration : 1 h 50 min
Bit rate mode : Variable
Bit rate : 3 950 kb/s
Channel(s) : 6 channels
Channel layout : C L R Ls Rs LFE
Sampling rate : 48.0 kHz
Frame rate : 93.750 FPS (512 SPF)
Bit depth : 24 bits
Compression mode : Lossless
Stream size : 3.04 GiB (26%)
Language : Chinese
Default : Yes
Forced : No

Text #1
ID : 3
Format : UTF-8
Codec ID : S_TEXT/UTF8
Codec ID/Info : UTF-8 Plain Text
Duration : 1 h 43 min
Bit rate : 34 b/s
Count of elements : 993
Stream size : 26.3 KiB (0%)
Title : SRT
Language : English
Default : Yes
Forced : No

Text #2
ID : 4
Format : PGS
Muxing mode : zlib
Codec ID : S_HDMV/PGS
Codec ID/Info : Picture based subtitle format used on BDs/HD-DVDs
Duration : 1 h 43 min
Bit rate : 27.1 kb/s
Count of elements : 1992
Stream size : 20.1 MiB (0%)
Language : English
Default : No
Forced : No

Menu
00:00:00.000 : Chapter 01
00:09:33.239 : Chapter 02
00:18:44.123 : Chapter 03
00:25:19.435 : Chapter 04
00:37:15.817 : Chapter 05
00:46:59.650 : Chapter 06
00:58:39.516 : Chapter 07
01:09:37.757 : Chapter 08
01:18:31.206 : Chapter 09
01:26:14.503 : Chapter 10
01:34:20.446 : Chapter 11
01:42:03.868 : Chapter 12



游客,如果您要查看本帖隐藏内容请回复开通VIP会员可免回复、不扣积分下载种子附件,点击开通VIP会员
古哥影视论坛www.gugeys.cc 高清电影,蓝光电影,最新电影,电影天堂,影视帝国,人人影视

该用户从未签到

发表于 2021-7-16 03:15:56 | 显示全部楼层
看看,感谢楼主分享
古哥影视论坛www.gugeys.cc 高清电影,蓝光电影,最新电影,电影天堂,影视帝国,人人影视
回复 支持 反对

使用道具 举报

该用户从未签到

发表于 2021-7-16 07:50:39 | 显示全部楼层
听说是烂片~~~~~感谢楼主分享!!!!!!
古哥影视论坛www.gugeys.cc 高清电影,蓝光电影,最新电影,电影天堂,影视帝国,人人影视
回复 支持 反对

使用道具 举报

  • TA的每日心情
    开心
    8 小时前
  • 签到天数: 102 天

    [LV.6]常住居民II

    发表于 2021-7-16 07:57:56 | 显示全部楼层

    谢谢楼主,辛苦了  谢谢楼主,辛苦了
    古哥影视论坛www.gugeys.cc 高清电影,蓝光电影,最新电影,电影天堂,影视帝国,人人影视
    回复 支持 反对

    使用道具 举报

  • TA的每日心情
    开心
    2021-2-4 07:49
  • 签到天数: 1 天

    [LV.1]初来乍到

    发表于 2021-7-16 08:17:26 | 显示全部楼层
    谢谢分享 下载看看
    古哥影视论坛www.gugeys.cc 高清电影,蓝光电影,最新电影,电影天堂,影视帝国,人人影视
    回复 支持 反对

    使用道具 举报

    该用户从未签到

    发表于 2021-7-16 09:30:12 | 显示全部楼层
    感谢楼主分享。
    古哥影视论坛www.gugeys.cc 高清电影,蓝光电影,最新电影,电影天堂,影视帝国,人人影视
    回复 支持 反对

    使用道具 举报

    该用户从未签到

    发表于 2021-7-16 09:35:49 | 显示全部楼层
    感谢分享,这个国产片是不是不用下字幕了。
    古哥影视论坛www.gugeys.cc 高清电影,蓝光电影,最新电影,电影天堂,影视帝国,人人影视
    回复 支持 反对

    使用道具 举报

    该用户从未签到

    发表于 2021-7-16 09:37:20 | 显示全部楼层
    看看,感谢楼主分享
    古哥影视论坛www.gugeys.cc 高清电影,蓝光电影,最新电影,电影天堂,影视帝国,人人影视
    回复 支持 反对

    使用道具 举报

    该用户从未签到

    发表于 2021-7-16 09:59:28 | 显示全部楼层
    这个没字幕吗
    古哥影视论坛www.gugeys.cc 高清电影,蓝光电影,最新电影,电影天堂,影视帝国,人人影视
    回复 支持 反对

    使用道具 举报

    该用户从未签到

    发表于 2021-7-16 12:14:55 | 显示全部楼层
    谢谢分享,十分感谢,O(∩_∩)O哈哈~
    古哥影视论坛www.gugeys.cc 高清电影,蓝光电影,最新电影,电影天堂,影视帝国,人人影视
    回复 支持 反对

    使用道具 举报

  • TA的每日心情
    开心
    2021-2-4 12:31
  • 签到天数: 1 天

    [LV.1]初来乍到

    发表于 2021-7-16 12:49:54 | 显示全部楼层
    听说是烂片~~~~~感谢楼主分享!!!!!!
    古哥影视论坛www.gugeys.cc 高清电影,蓝光电影,最新电影,电影天堂,影视帝国,人人影视
    回复 支持 反对

    使用道具 举报

    该用户从未签到

    发表于 2021-7-16 12:52:09 | 显示全部楼层
    征途!感谢楼主分享!
    古哥影视论坛www.gugeys.cc 高清电影,蓝光电影,最新电影,电影天堂,影视帝国,人人影视
    回复 支持 反对

    使用道具 举报

    该用户从未签到

    发表于 2021-7-16 13:59:56 | 显示全部楼层
    应该还不错的电影谢谢分享
    古哥影视论坛www.gugeys.cc 高清电影,蓝光电影,最新电影,电影天堂,影视帝国,人人影视
    回复 支持 反对

    使用道具 举报

    该用户从未签到

    发表于 2021-7-16 14:18:29 | 显示全部楼层
    下载看看,好不好看
    古哥影视论坛www.gugeys.cc 高清电影,蓝光电影,最新电影,电影天堂,影视帝国,人人影视
    回复 支持 反对

    使用道具 举报

  • TA的每日心情
    开心
    半小时前
  • 签到天数: 7 天

    [LV.3]偶尔看看II

    发表于 2021-7-16 14:41:33 | 显示全部楼层
    感谢楼主分享,看完再说质量
    古哥影视论坛www.gugeys.cc 高清电影,蓝光电影,最新电影,电影天堂,影视帝国,人人影视
    回复 支持 反对

    使用道具 举报

    该用户从未签到

    发表于 2021-7-16 15:22:07 | 显示全部楼层
    是烂片~~~~~感谢楼主分享!!!!!!
    古哥影视论坛www.gugeys.cc 高清电影,蓝光电影,最新电影,电影天堂,影视帝国,人人影视
    回复 支持 反对

    使用道具 举报

    该用户从未签到

    发表于 2021-7-16 15:39:39 | 显示全部楼层
    的人工湖基尼
    古哥影视论坛www.gugeys.cc 高清电影,蓝光电影,最新电影,电影天堂,影视帝国,人人影视
    回复 支持 反对

    使用道具 举报

    该用户从未签到

    发表于 2021-7-16 19:01:10 | 显示全部楼层
    下来看看怎么个样子吧
    古哥影视论坛www.gugeys.cc 高清电影,蓝光电影,最新电影,电影天堂,影视帝国,人人影视
    回复 支持 反对

    使用道具 举报

    您需要登录后才可以回帖 登录 | 注册(分享大片)

    本版积分规则

    免责声明
    本站提供网上学习交流和自由讨论使用,所有资源均来自互联网公开渠道,发布和个人言论并不代表本站立场,本站不负任何责任.
    如发现有侵权行为,请与我们联系.我们将立刻从网站上删除,并向所有持版权者致最深歉意.
    已经安全运行

    QQ|小黑屋|手机版|Archiver|古哥论坛

    GMT+8, 2021-7-25 16:39 , Processed in 0.078000 second(s), 23 queries , Gzip On.

    Powered by Discuz! X3.4

    Copyright © 2001-2020, Tencent Cloud.

    快速回复 返回顶部 返回列表