古哥论坛

 找回密码
 注册(分享大片)
查看: 757|回复: 70
打印 上一主题 下一主题

[东京爱情故事]Tokyo Love Story 1991 JPN Bluray 1080i AVC LPCM2.0(CHDBits)[129GB]

[复制链接]
  • TA的每日心情
    无聊
    2021-9-17 12:21
  • 签到天数: 2 天

    [LV.1]初来乍到

    跳转到指定楼层
    1#
    发表于 2021-9-8 21:41:52 | 只看该作者 回帖奖励 |倒序浏览 |阅读模式
    4K天堂
    本帖最后由 r6472279 于 2021-9-11 00:47 编辑

    Tokyo Love Story Disc1 1991 JPN Blu-ray 1080i AVC LPCM 2 0-blucook#630@CHDBits东京爱情故事 第1碟 EP01-EP04 [日版蓝光原盘][DIY正片.三国配.简繁字幕] 不撸酷客第630弹
    大小:44.84 GB   类型: TV Series   媒介: Blu-ray   编码: MPEG-4   音频编码: LPCM   分辨率: 1080i   处理: 日剧   制作组: blucook


    Tokyo Love Story Disc2.1991 JPN Blu-ray 1080i AVC LPCM 2 0-blucook#630@CHDBits
    东京爱情故事 第2碟 EP05-EP08 [日版蓝光原盘][DIY正片.三国配.简繁字幕] 不撸酷客第630弹
    大小:45.09 GB   类型: TV Series   媒介: Blu-ray   编码: MPEG-4   音频编码: LPCM   分辨率: 1080i   处理: 日剧   制作组: blucook


    Tokyo Love Story Disc3 1991 JPN Blu-ray 1080i AVC LPCM 2 0-blucook#630@CHDBits
    东京爱情故事 第3碟 EP09-EP11 本剧终 [日版蓝光原盘][DIY正片.三国配.简繁字幕] 不撸酷客第630弹
    大小:39.95 GB   类型: TV Series   媒介: Blu-ray   编码: MPEG-4   音频编码: LPCM   分辨率: 1080i   处理: 日剧   制作组: blucook


    原盘下载于TTG,在此感谢!

    由萌盘贵宾晓风残月提供资源,特此感谢!
    PD16和先锋碟机播放测试通过。
    日版蓝光原盘][DIY正片.三国配.简繁字幕] 不撸酷客第630弹

    ※※※※※※※ 影片信息 ※※※※※※※


    ◎译  名:东京爱情故事 / Tokyo Love Story
    ◎片  名:東京ラブストーリー
    ◎年  代:1991
    ◎产  地:日本
    ◎类  型:爱情
    ◎语  言:日语
    ◎上映日期:1991-01-07(日本)
    ◎评  级:|
    ◎IMDb链接:https://www.imdb.com/title/tt0206518/
    ◎IMDb评分:8.7 (443人评价)
    ◎豆瓣链接:https://movie.douban.com/subject/1438760/
    ◎豆瓣评分:9.4 (114699人评价)
    ◎导  演:永山耕三 / 本间欧彦
    ◎编  剧:坂元裕二 / 柴门文
    ◎主  演:铃木保奈美 / 织田裕二 / 江口洋介 / 有森也实 / 千堂秋穗

    ◎剧情简介:
      从爱媛乡下来到大城市东京的广告代理店工作的永尾完治(织田裕二饰)忐忑地走出机场,迎接她的是公司女同事,海归女性赤名莉香(铃木保奈美饰)的笑颜与“丸子”的爱称。(日文中“完治”与“丸子”谐音。)老实的完治工作踏实,很快得到了莉香的表白。但他心中却有另一个女人。
      同学会上,完治与老同学关口里美(有森也实饰)、三上健一(江口洋介饰)相遇。完治发现自己暗恋的里美在与好友三上交往,苦闷的他不知道,三上只是怀着玩的心态与里美交往,实际上三上喜欢的是医学院的女学生长崎尚子(千堂あきほ饰)。
      五个人的感情纠葛,东京城市下渴望爱的一个个灵魂。完治会选择热情奔放的莉香,还是传统女性的里美呢?

    ※※※※※※※ 参数信息 ※※※※※※※

    DISC INFO:

    Disc Label:     Tokyo Love Story 1991 D01
    Disc Size:      48,148,655,343 bytes
    Protection:     AACS
    BDInfo:         0.7.5.5

    PLAYLIST REPORT:

    Name:                   00000.MPLS
    Length:                 3:04:07.036 (h:m:s.ms)
    Size:                   48,077,015,040 bytes
    Total Bitrate:          34.82 Mbps

    VIDEO:

    Codec                   Bitrate             Description   
    -----                   -------             -----------   
    MPEG-4 AVC Video        30966 kbps          1080i / 29.970 fps / 16:9 / High Profile 4.1

    AUDIO:

    Codec                           Language        Bitrate         Description   
    -----                           --------        -------         -----------   
    LPCM Audio                      Japanese        1536 kbps       2.0 / 48 kHz /  1536 kbps / 16-bit
    Dolby Digital Audio             Chinese         96 kbps         2.0 / 48 kHz /    96 kbps / DN -27dB  (上译)
    Dolby Digital Audio             Chinese         96 kbps         2.0 / 48 kHz /    96 kbps / DN -27dB  (台配)
    Dolby Digital Audio             Chinese         192 kbps        2.0 / 48 kHz /   192 kbps / DN -31dB(网配)  

    SUBTITLES:

    Codec                           Language        Bitrate         Description   
    -----                           --------        -------         -----------   
    Presentation Graphics           Chinese         23.463 kbps                    
    Presentation Graphics           Chinese         24.328 kbps                    

    FILES:

    Name            Time In         Length          Size            Total Bitrate  
    ----            -------         ------          ----            -------------  
    00002.M2TS      0:00:00.000     0:46:12.970     12,079,134,720  34,848         
    00003.M2TS      0:46:12.970     0:46:08.031     12,055,037,952  34,841         
    00004.M2TS      1:32:21.002     0:46:07.965     12,052,236,288  34,833         
    00005.M2TS      2:18:28.967     0:45:29.059     11,881,752,576  34,830         
    00007.M2TS      3:03:58.027     0:00:01.001     5,105,664       40,805         
    00001.M2TS      3:03:59.028     0:00:08.007     3,747,840       3,744


    ※※※※※※※ 参数信息 ※※※※※※※

    DISC INFO:

    Disc Label:     Tokyo Love Story 1991 D02
    Disc Size:      48,413,358,505 bytes
    Protection:     AACS
    BDInfo:         0.7.5.5

    PLAYLIST REPORT:

    Name:                   00000.MPLS
    Length:                 3:05:05.894 (h:m:s.ms)
    Size:                   48,341,624,832 bytes
    Total Bitrate:          34.82 Mbps

    VIDEO:

    Codec                   Bitrate             Description   
    -----                   -------             -----------   
    MPEG-4 AVC Video        30970 kbps          1080i / 29.970 fps / 16:9 / High Profile 4.1

    AUDIO:

    Codec                           Language        Bitrate         Description   
    -----                           --------        -------         -----------   
    LPCM Audio                      Japanese        1536 kbps       2.0 / 48 kHz /  1536 kbps / 16-bit
    Dolby Digital Audio             Chinese         96 kbps         2.0 / 48 kHz /    96 kbps / DN -27dB  (上译)
    Dolby Digital Audio             Chinese         96 kbps         2.0 / 48 kHz /    96 kbps / DN -27dB  (台配)
    Dolby Digital Audio             Chinese         192 kbps        2.0 / 48 kHz /   192 kbps / DN -31dB(网配)

    SUBTITLES:

    Codec                           Language        Bitrate         Description   
    -----                           --------        -------         -----------   
    Presentation Graphics           Chinese         24.408 kbps                    
    Presentation Graphics           Chinese         25.283 kbps                    

    FILES:

    Name            Time In         Length          Size            Total Bitrate  
    ----            -------         ------          ----            -------------  
    00002.M2TS      0:00:00.000     0:47:04.955     12,302,733,312  34,840         
    00003.M2TS      0:47:04.955     0:46:13.637     12,080,572,416  34,844         
    00004.M2TS      1:33:18.593     0:45:27.391     11,879,325,696  34,845         
    00005.M2TS      2:18:45.984     0:46:10.901     12,070,139,904  34,848         
    00007.M2TS      3:04:56.885     0:00:01.001     5,105,664       40,805         
    00001.M2TS      3:04:57.886     0:00:08.007     3,747,840       3,744


    ※※※※※※※ 参数信息 ※※※※※※※

    DISC INFO:

    Disc Label:     Tokyo Love Story 1991 D03
    Disc Size:      42,897,723,677 bytes
    Protection:     AACS
    BDInfo:         0.7.5.5

    PLAYLIST REPORT:

    Name:                   00000.MPLS
    Length:                 2:17:03.815 (h:m:s.ms)
    Size:                   42,827,120,640 bytes
    Total Bitrate:          41.66 Mbps

    VIDEO:

    Codec                   Bitrate             Description   
    -----                   -------             -----------   
    MPEG-4 AVC Video        37358 kbps          1080i / 29.970 fps / 16:9 / High Profile 4.1

    AUDIO:

    Codec                           Language        Bitrate         Description   
    -----                           --------        -------         -----------   
    LPCM Audio                      Japanese        1536 kbps       2.0 / 48 kHz /  1536 kbps / 16-bit
    Dolby Digital Audio             Chinese         192 kbps        2.0 / 48 kHz /   192 kbps / DN -31dB  (上译)
    Dolby Digital Audio             Chinese         192 kbps        2.0 / 48 kHz /   192 kbps / DN -31dB  (台配)
    Dolby Digital Audio             Chinese         192 kbps        2.0 / 48 kHz /   192 kbps / DN -31dB(网配)

    SUBTITLES:

    Codec                           Language        Bitrate         Description   
    -----                           --------        -------         -----------   
    Presentation Graphics           Chinese         16.493 kbps                    
    Presentation Graphics           Chinese         17.111 kbps                    

    FILES:

    Name            Time In         Length          Size            Total Bitrate  
    ----            -------         ------          ----            -------------  
    00002.M2TS      0:00:00.000     0:46:18.842     14,486,876,160  41,706         
    00003.M2TS      0:46:18.842     0:44:33.070     13,930,659,840  41,692         
    00004.M2TS      1:30:51.913     0:46:02.893     14,400,731,136  41,698         
    00005.M2TS      2:16:54.806     0:00:01.001     5,105,664       40,805         
    00001.M2TS      2:16:55.807     0:00:08.007     3,747,840       3,744
    Disc1 (请复制链接使用115 添加离线任务 进行下载)
    游客,如果您要查看本帖隐藏内容请回复开通VIP会员可免回复、不扣积分下载种子附件,点击开通VIP会员

    Disc2 (请复制链接使用115 添加离线任务 进行下载)
    游客,如果您要查看本帖隐藏内容请回复开通VIP会员可免回复、不扣积分下载种子附件,点击开通VIP会员

    Disc3 (请复制链接使用115 添加离线任务 进行下载)
    游客,如果您要查看本帖隐藏内容请回复开通VIP会员可免回复、不扣积分下载种子附件,点击开通VIP会员


    PS:个人将使用比特彗星进行供种,但由于带宽属于移动内网,连接状况不佳,为了最好的下载效果,还请使用115添加离线任务进行下载




    古哥影视论坛www.gudage.cc 高清电影,蓝光电影,最新电影,电影天堂,影视帝国,人人影视
  • TA的每日心情
    开心
    2021-1-17 12:18
  • 签到天数: 1 天

    [LV.1]初来乍到

    来自 27#
    发表于 2021-9-9 20:42:09 | 只看该作者

    经典日剧,十分感谢楼主的无私分享

    希望能出高清版悠长假期啊!!!!

    评分

    参与人数 1影视币 +20 收起 理由
    r6472279 + 20 收到请求,正在下载

    查看全部评分

    古哥影视论坛www.gudage.cc 高清电影,蓝光电影,最新电影,电影天堂,影视帝国,人人影视
    回复 支持 反对

    使用道具 举报

    该用户从未签到

    2#
    发表于 2021-9-8 22:05:40 | 只看该作者
    这个是准的顶啊
    古哥影视论坛www.gudage.cc 高清电影,蓝光电影,最新电影,电影天堂,影视帝国,人人影视
    回复 支持 反对

    使用道具 举报

    该用户从未签到

    3#
    发表于 2021-9-8 22:56:57 | 只看该作者
    经典日剧,十分感谢楼主的无私分享
    古哥影视论坛www.gudage.cc 高清电影,蓝光电影,最新电影,电影天堂,影视帝国,人人影视
    回复 支持 反对

    使用道具 举报

  • TA的每日心情
    开心
    2021-9-18 01:48
  • 签到天数: 134 天

    [LV.7]常住居民III

    4#
    发表于 2021-9-8 23:38:40 | 只看该作者

    经典日剧,十分感谢楼主的无私分享
    古哥影视论坛www.gudage.cc 高清电影,蓝光电影,最新电影,电影天堂,影视帝国,人人影视
    回复 支持 反对

    使用道具 举报

  • TA的每日心情
    郁闷
    2021-8-13 22:57
  • 签到天数: 1 天

    [LV.1]初来乍到

    5#
    发表于 2021-9-8 23:46:19 | 只看该作者

    回帖奖励 +1 YSB影视币

    30年后等来了高清版,而我已经50岁了。。。。。
    古哥影视论坛www.gudage.cc 高清电影,蓝光电影,最新电影,电影天堂,影视帝国,人人影视
    回复 支持 反对

    使用道具 举报

    该用户从未签到

    6#
    发表于 2021-9-9 02:33:33 | 只看该作者
    东京爱情故事好东西
    古哥影视论坛www.gudage.cc 高清电影,蓝光电影,最新电影,电影天堂,影视帝国,人人影视
    回复 支持 反对

    使用道具 举报

  • TA的每日心情
    开心
    昨天 08:00
  • 签到天数: 144 天

    [LV.7]常住居民III

    7#
    发表于 2021-9-9 07:43:12 | 只看该作者
    绝对经典,感谢分享
    古哥影视论坛www.gudage.cc 高清电影,蓝光电影,最新电影,电影天堂,影视帝国,人人影视
    回复 支持 反对

    使用道具 举报

    该用户从未签到

    8#
    发表于 2021-9-9 09:17:12 | 只看该作者
    好片期待,谢谢分享!
    古哥影视论坛www.gudage.cc 高清电影,蓝光电影,最新电影,电影天堂,影视帝国,人人影视
    回复 支持 反对

    使用道具 举报

  • TA的每日心情
    奋斗
    前天 00:02
  • 签到天数: 4 天

    [LV.2]偶尔看看I

    9#
    发表于 2021-9-9 09:51:03 | 只看该作者
    震撼,多少年的期盼
    古哥影视论坛www.gudage.cc 高清电影,蓝光电影,最新电影,电影天堂,影视帝国,人人影视
    回复 支持 反对

    使用道具 举报

    该用户从未签到

    10#
    发表于 2021-9-9 09:56:22 | 只看该作者
    非常经典吧,80后的回忆了
    古哥影视论坛www.gudage.cc 高清电影,蓝光电影,最新电影,电影天堂,影视帝国,人人影视
    回复 支持 反对

    使用道具 举报

    该用户从未签到

    11#
    发表于 2021-9-9 10:26:34 | 只看该作者
    经典必须收藏!
    古哥影视论坛www.gudage.cc 高清电影,蓝光电影,最新电影,电影天堂,影视帝国,人人影视
    回复 支持 反对

    使用道具 举报

    该用户从未签到

    12#
    发表于 2021-9-9 10:52:11 | 只看该作者
    谢谢分享,祝越来越好
    古哥影视论坛www.gudage.cc 高清电影,蓝光电影,最新电影,电影天堂,影视帝国,人人影视
    回复 支持 反对

    使用道具 举报

    该用户从未签到

    13#
    发表于 2021-9-9 11:34:59 | 只看该作者
    谢楼主分享
    古哥影视论坛www.gudage.cc 高清电影,蓝光电影,最新电影,电影天堂,影视帝国,人人影视
    回复 支持 反对

    使用道具 举报

    该用户从未签到

    14#
    发表于 2021-9-9 13:20:00 | 只看该作者
    经典日剧,感谢楼主的无私分享!
    古哥影视论坛www.gudage.cc 高清电影,蓝光电影,最新电影,电影天堂,影视帝国,人人影视
    回复 支持 反对

    使用道具 举报

  • TA的每日心情
    开心
    前天 12:12
  • 签到天数: 17 天

    [LV.4]偶尔看看III

    15#
    发表于 2021-9-9 15:31:35 | 只看该作者
    感谢楼主分享!
    古哥影视论坛www.gudage.cc 高清电影,蓝光电影,最新电影,电影天堂,影视帝国,人人影视
    回复 支持 反对

    使用道具 举报

    该用户从未签到

    16#
    发表于 2021-9-9 15:35:24 | 只看该作者
    绝世好片哈哈哈哈哈
    古哥影视论坛www.gudage.cc 高清电影,蓝光电影,最新电影,电影天堂,影视帝国,人人影视
    回复 支持 反对

    使用道具 举报

    该用户从未签到

    17#
    发表于 2021-9-9 16:30:02 | 只看该作者
    这个版本的清晰度如何啊?
    古哥影视论坛www.gudage.cc 高清电影,蓝光电影,最新电影,电影天堂,影视帝国,人人影视
    回复 支持 反对

    使用道具 举报

    该用户从未签到

    18#
    发表于 2021-9-9 17:50:52 | 只看该作者
    感谢楼主发片
    古哥影视论坛www.gudage.cc 高清电影,蓝光电影,最新电影,电影天堂,影视帝国,人人影视
    回复 支持 反对

    使用道具 举报

    该用户从未签到

    19#
    发表于 2021-9-9 18:03:00 | 只看该作者
    感谢楼主分享!永远支持古哥影视
    古哥影视论坛www.gudage.cc 高清电影,蓝光电影,最新电影,电影天堂,影视帝国,人人影视
    回复 支持 反对

    使用道具 举报

    该用户从未签到

    20#
    发表于 2021-9-9 18:43:51 | 只看该作者
    经典日剧,感谢楼主
    古哥影视论坛www.gudage.cc 高清电影,蓝光电影,最新电影,电影天堂,影视帝国,人人影视
    回复 支持 反对

    使用道具 举报

    您需要登录后才可以回帖 登录 | 注册(分享大片)

    本版积分规则

    免责声明
    本站提供网上学习交流和自由讨论使用,所有资源均来自互联网公开渠道,发布和个人言论并不代表本站立场,本站不负任何责任.
    如发现有侵权行为,请与我们联系.我们将立刻从网站上删除,并向所有持版权者致最深歉意.
    已经安全运行

    QQ|小黑屋|手机版|Archiver|古哥论坛

    GMT+8, 2021-9-26 07:29 , Processed in 0.124800 second(s), 29 queries , Gzip On.

    Powered by Discuz! X3.4

    Copyright © 2001-2020, Tencent Cloud.

    快速回复 返回顶部 返回列表